* Dettagli Torrent   globale  | Commenti (0) 


- Benvenuti.A.Marwen.2018.iTA.ENG.AC3.SUB.iTA.ENG.BluRay.HEVC.1080p.x265.jeddak-MIRCrew -


Download via torrent:
Categoria bittorrent BDRip
Descrizione





Benvenuti A Marwen


Titolo originale: Welcome To Marwen
Genere: Biografico, Commedia, Drammatico
Anno: 2018
Regia: Robert Zemeckis
Attori: Steve Carell, Eiza González, Diane Kruger, Leslie Mann, Gwendoline Christie, Merritt Wever, Janelle Monáe, Neil Jackson, Matt O'Leary, Stefanie von Pfetten, Falk Hentschel, Leslie Zemeckis, Matthew Kevin Anderson, Matt Ellis
Paese: USA
Durata: 116 min
Distribuzione: Universal Pictures Italia
Sceneggiatura: Robert Zemeckis
Fotografia: C. Kim Miles
Montaggio: Jeremiah O'Driscoll
Musiche: Alan Silvestri
Produzione: DreamWorks, ImageMovers, Universal Pictures



Benvenuti A Marwen è un film drammatico del 2018 diretto da Robert Zemeckis, con Steve Carell e Eiza González. Il film racconta la vera storia di Mark Hogancamp (Steve Carell), illustratore specializzato che vive durante la seconda guerra mondiale. Un giorno, Mark viene picchiato selvaggiamente e senza motivo da cinque balordi che lo riducono in fin di vita. Per lui non ci sono molte speranze di farcela, tanto più che i calci ricevuti alla testa gli hanno provocato un'amnesia totale che ha cancellato tutti i suoi ricordi. Mark trova la forza di andare avanti grazie a un insolito progetto: la costruzione di un'istallazione, una fantastica città belga in miniatura di nome Marwen.
In questo luogo straordinario, lui è Hogie, capitano e pilota di aerei da combattimento della seconda guerra mondiale, protetto da cinque bambole paladine della giustizia che lo difendono dai nemici nazisti, riproduzioni dei suoi reali aggressori. Le bambole, sono anch'esse ispirate a delle amiche reali di Mark: Anna (Gwendoline Christie), Julie (Janelle Monáe), Caralala (Eiza González), Roberta (Merritt Wever) e Nicol (Leslie Mann). Mentre affronta la riabilitazione nel mondo reale, sostenuto dalla forza e amicizia delle cinque donne in carne e ossa, si rifugia in un mondo fatto di fantasia e realtà, dove può guarire e trovare il coraggio di continuare a vivere a testa alta.





















General
Unique ID                   : 251194263261576310492252248027050452931 (0xBCFA415E7215301D8243EBCE5192A7C3)
Complete name               : Benvenuti.A.Marwen.2018.iTA.ENG.AC3.SUB.iTA.ENG.BluRay.HEVC.1080p.x265.jeddak-MIRCrew.mkv
Format                      : Matroska
Format version              : Version 2
File size                   : 2.48 GiB
Duration                    : 1 h 55 min
Overall bit rate            : 3 058 kb/s
Movie name                  : Benvenuti.A.Marwen.2018.iTA.ENG.AC3.SUB.iTA.ENG.BluRay.HEVC.1080p.x265.jeddak-MIRCrew
Encoded date                : UTC 2022-06-05 08:51:10
Writing application         : mkvmerge v5.6.0 ( 'Kenya Kane' ) built on May 27 2012 16:44:04
Writing library             : libebml v1.2.3 + libmatroska v1.3.0 / Lavf58.76.100

Video
ID                          : 1
Format                      : HEVC
Format/Info                 : High Efficiency Video Coding
Format profile              : [email protected]@Main
Codec ID                    : V_MPEGH/ISO/HEVC
Duration                    : 1 h 55 min
Bit rate                    : 2 101 kb/s
Width                       : 1 920 pixels
Height                      : 800 pixels
Display aspect ratio        : 2.40:1
Frame rate mode             : Constant
Frame rate                  : 23.976 (24000/1001) FPS
Color space                 : YUV
Chroma subsampling          : 4:2:0
Bit depth                   : 8 bits
Bits/(Pixel*Frame)          : 0.057
Stream size                 : 1.70 GiB (69%)
Title                       : ...::: jeddak MIRCrew :::...
Writing library             : x265 3.5+1-f0c1022b6:[Linux][GCC 9.3.0][64 bit] 8bit+10bit+12bit
Encoding settings           : cpuid=1111039 / frame-threads=5 / wpp / no-pmode / no-pme / no-psnr / no-ssim / log-level=2 / input-csp=1 / input-res=1920x800 / interlace=0 / total-frames=0 / level-idc=40 / high-tier=1 / uhd-bd=0 / ref=3 / no-allow-non-conformance / no-repeat-headers / annexb / no-aud / no-hrd / info / hash=0 / no-temporal-layers / open-gop / min-keyint=24 / keyint=240 / gop-lookahead=0 / bframes=4 / b-adapt=2 / b-pyramid / bframe-bias=0 / rc-lookahead=20 / lookahead-slices=5 / scenecut=40 / hist-scenecut=0 / radl=0 / no-splice / no-intra-refresh / ctu=64 / min-cu-size=8 / no-rect / no-amp / max-tu-size=32 / tu-inter-depth=1 / tu-intra-depth=1 / limit-tu=0 / rdoq-level=0 / dynamic-rd=0.00 / no-ssim-rd / signhide / no-tskip / nr-intra=0 / nr-inter=0 / no-constrained-intra / strong-intra-smoothing / max-merge=3 / limit-refs=1 / no-limit-modes / me=1 / subme=2 / merange=57 / temporal-mvp / no-frame-dup / no-hme / weightp / no-weightb / no-analyze-src-pics / deblock=0:0 / sao / no-sao-non-deblock / rd=3 / selective-sao=4 / early-skip / rskip / no-fast-intra / no-tskip-fast / no-cu-lossless / b-intra / no-splitrd-skip / rdpenalty=0 / psy-rd=2.00 / psy-rdoq=0.00 / no-rd-refine / no-lossless / cbqpoffs=0 / crqpoffs=0 / rc=abr / bitrate=2100 / qcomp=0.60 / qpstep=4 / stats-write=0 / stats-read=0 / ipratio=1.40 / pbratio=1.30 / aq-mode=2 / aq-strength=1.00 / cutree / zone-count=0 / no-strict-cbr / qg-size=32 / no-rc-grain / qpmax=69 / qpmin=0 / no-const-vbv / sar=1 / overscan=0 / videoformat=5 / range=0 / colorprim=1 / transfer=1 / colormatrix=1 / chromaloc=0 / display-window=0 / cll=0,0 / min-luma=0 / max-luma=255 / log2-max-poc-lsb=8 / vui-timing-info / vui-hrd-info / slices=1 / no-opt-qp-pps / no-opt-ref-list-length-pps / no-multi-pass-opt-rps / scenecut-bias=0.05 / hist-threshold=0.03 / no-opt-cu-delta-qp / no-aq-motion / no-hdr10 / no-hdr10-opt / no-dhdr10-opt / no-idr-recovery-sei / analysis-reuse-level=0 / analysis-save-reuse-level=0 / analysis-load-reuse-level=0 / scale-factor=0 / refine-intra=0 / refine-inter=0 / refine-mv=1 / refine-ctu-distortion=0 / no-limit-sao / ctu-info=0 / no-lowpass-dct / refine-analysis-type=0 / copy-pic=1 / max-ausize-factor=1.0 / no-dynamic-refine / no-single-sei / no-hevc-aq / no-svt / no-field / qp-adaptation-range=1.00 / scenecut-aware-qp=0conformance-window-offsets / right=0 / bottom=0 / decoder-max-rate=0 / no-vbv-live-multi-pass
Default                     : Yes
Forced                      : No
Color range                 : Limited
Color primaries             : BT.709
Transfer characteristics    : BT.709
Matrix coefficients         : BT.709
Duration_Source             : General_Duration

Audio #1
ID                          : 2
Format                      : AC-3
Format/Info                 : Audio Coding 3
Commercial name             : Dolby Digital
Codec ID                    : A_AC3
Duration                    : 1 h 55 min
Bit rate mode               : Constant
Bit rate                    : 448 kb/s
Channel(s)                  : 6 channels
Channel layout              : L R C LFE Ls Rs
Sampling rate               : 48.0 kHz
Frame rate                  : 31.250 FPS (1536 SPF)
Compression mode            : Lossy
Delay relative to video     : 1 ms
Stream size                 : 372 MiB (15%)
Title                       : iTA AC3 5.1
Language                    : Italian
Service kind                : Complete Main
Default                     : Yes
Forced                      : No

Audio #2
ID                          : 3
Format                      : AC-3
Format/Info                 : Audio Coding 3
Commercial name             : Dolby Digital
Codec ID                    : A_AC3
Duration                    : 1 h 55 min
Bit rate mode               : Constant
Bit rate                    : 448 kb/s
Channel(s)                  : 6 channels
Channel layout              : L R C LFE Ls Rs
Sampling rate               : 48.0 kHz
Frame rate                  : 31.250 FPS (1536 SPF)
Compression mode            : Lossy
Delay relative to video     : -5 ms
Stream size                 : 372 MiB (15%)
Title                       : ENG AC3 5.1
Language                    : English
Service kind                : Complete Main
Default                     : No
Forced                      : No

Text #1
ID                          : 4
Format                      : UTF-8
Codec ID                    : S_TEXT/UTF8
Codec ID/Info               : UTF-8 Plain Text
Title                       : iTA FORCED - SRT
Language                    : Italian
Default                     : No
Forced                      : Yes

Text #2
ID                          : 5
Format                      : PGS
Codec ID                    : S_HDMV/PGS
Codec ID/Info               : Picture based subtitle format used on BDs/HD-DVDs
Duration                    : 1 h 55 min
Title                       : iTA FORCED - PGS
Language                    : Italian
Default                     : Yes
Forced                      : Yes

Text #3
ID                          : 6
Format                      : UTF-8
Codec ID                    : S_TEXT/UTF8
Codec ID/Info               : UTF-8 Plain Text
Title                       : ENG FORCED - SRT
Language                    : English
Default                     : No
Forced                      : Yes

Text #4
ID                          : 7
Format                      : PGS
Codec ID                    : S_HDMV/PGS
Codec ID/Info               : Picture based subtitle format used on BDs/HD-DVDs
Duration                    : 1 h 34 min
Title                       : ENG FORCED - PGS
Language                    : English
Default                     : No
Forced                      : Yes

Text #5
ID                          : 8
Format                      : PGS
Codec ID                    : S_HDMV/PGS
Codec ID/Info               : Picture based subtitle format used on BDs/HD-DVDs
Duration                    : 1 h 55 min
Title                       : iTA REGULAR - PGS
Language                    : Italian
Default                     : No
Forced                      : No

Text #6
ID                          : 9
Format                      : PGS
Codec ID                    : S_HDMV/PGS
Codec ID/Info               : Picture based subtitle format used on BDs/HD-DVDs
Duration                    : 1 h 47 min
Title                       : ENG NON UDENTI - PGS
Language                    : English
Default                     : No
Forced                      : No

Menu
00:00:00.000                : :Capitolo 01
00:04:17.257                : :Capitolo 02
00:10:57.448                : :Capitolo 03
00:16:42.877                : :Capitolo 04
00:22:26.971                : :Capitolo 05
00:27:34.820                : :Capitolo 06
00:35:10.775                : :Capitolo 07
00:41:09.217                : :Capitolo 08
00:45:59.173                : :Capitolo 09
00:51:35.634                : :Capitolo 10
01:00:35.924                : :Capitolo 11
01:03:30.974                : :Capitolo 12
01:08:07.250                : :Capitolo 13
01:13:38.706                : :Capitolo 14
01:17:14.713                : :Capitolo 15
01:25:13.525                : :Capitolo 16
01:30:48.485                : :Capitolo 17
01:39:34.719                : :Capitolo 18
01:43:31.372                : :Capitolo 19
01:48:50.107                : :Capitolo 20
Info: Per scaricare devi usare un client come uTorrent o Transmission
AnnounceURL
udp://tracker.torrent.eu.org:451/announce
Hash f850c4165786466a8926f0a7a603c1df33b4df80
Peers seeds: 18 , leech: 2
Size 2.48 GB
Completato 856x
Aggiunto 05.06.22 - 13:06:59
Uploader   jeddak1
Votazione (Voti: 0)


Condividi questo bittorrent:


html/blog:


bbcode/forum:




Aggiungi Commento