* Dettagli Torrent   globale  | Commenti (0) 


- Full.Metal.Jacket.1987.iTA.ENG.AC3.SUB.iTA.ENG.BluRay.HEVC.1080p.x265.jeddak-MIRCrew -


Download via torrent:
Categoria bittorrent BDRip
Descrizione





Full Metal Jacket


Titolo originale: Full Metal Jacket
Genere: Drammatico, Guerra
Anno: 1987
Regia: Stanley Kubrick
Attori: Matthew Modine, Adam Baldwin, Vincent D'Onofrio, R. Lee Ermey, Dorian Harewood, Arliss Howard, John Terry, Kevyn Major Howard
Paese: USA
Durata: 116 min
Distribuzione: Warner Bros Italia
Sceneggiatura: Stanley Kubrick, Michael Herr, Gustav Hasford
Fotografia: Douglas Milsome
Montaggio: Martin Hunter
Musiche: Abigail Mead
Produzione: Natant, Warner Bros.



Full Metal Jacket è un film del 1987 diretto da Stanley Kubrick.
Nel campo di addestramento Marines di Parris Island, un plotone di giovani americani si prepara alla partenza per il Vietnam. Per rendere i soldati vere e proprie macchine mortali, il Sergente maggiore Hartman (Ronald Lee Ermey), un uomo severo e duro, li sottopone ad estenuanti prove fisiche e mentali.
Hartman sembra non conoscere la pietà, esaltato dalla lotta al comunismo e dalla violenza verbale e psicologica. Nel clima di crescente frustrazione creato dal Sergente e dalla prospettiva della morte sul fronte vietnamita, il brillante Joker (Matthew Modine) tiene testa alle angherie, mentre il sempliciotto contadino Palla di Lardo (Vincent D’Onofrio) è il bersaglio degli insulti e delle vessazioni di Hartman.
Quando il ragazzo mette nei guai l’intero plotone, i compagni si ribellano e lo puniscono. L’episodio provoca un profondo trauma in Palla di Lardo che, tuttavia, diventa sempre più bravo nell’addestramento fisico, guadagnandosi anche qualche lode da parte di Hartman.
La condizione di alienazione e avvilimento, tuttavia, indurrà il ragazzo a compiere un gesto inaspettato prima della partenza per il fronte.
Qualche mese dopo, Joker si trova in Vietnam come corrispondente di guerra. Stanco di dover alterare le informazioni per glorificare ed elogiare i soldati americani, il ragazzo e il fotografo Rafterman (Kevin Major Howard) si recano personalmente al fronte durante l’Offensiva del Tet, nel gennaio 1968.
Nel corso della missione, Joker osserva personalmente la disumanizzazione provocata dalla guerra, la psicosi collettiva che affligge i giovani americani completamente atterriti dalla morte e, con un gesto che non ha nulla di glorioso, ne diventa, tristemente, partecipe.





















General
Unique ID                   : 204805555202277013342651421514492382630 (0x9A141D7ABD126C76978AF6B175158DA6)
Complete name               : Full.Metal.Jacket.1987.iTA.ENG.AC3.SUB.iTA.ENG.BluRay.HEVC.1080p.x265.jeddak-MIRCrew.mkv
Format                      : Matroska
Format version              : Version 2
File size                   : 2.48 GiB
Duration                    : 1 h 56 min
Overall bit rate            : 3 051 kb/s
Movie name                  : Full.Metal.Jacket.1987.iTA.ENG.AC3.SUB.iTA.ENG.BluRay.HEVC.1080p.x265.jeddak-MIRCrew
Encoded date                : UTC 2022-06-04 07:36:57
Writing application         : mkvmerge v5.6.0 ( 'Kenya Kane' ) built on May 27 2012 16:44:04
Writing library             : libebml v1.2.3 + libmatroska v1.3.0 / Lavf58.76.100

Video
ID                          : 1
Format                      : HEVC
Format/Info                 : High Efficiency Video Coding
Format profile              : [email protected]@Main
Codec ID                    : V_MPEGH/ISO/HEVC
Duration                    : 1 h 56 min
Bit rate                    : 2 095 kb/s
Width                       : 1 920 pixels
Height                      : 1 080 pixels
Display aspect ratio        : 16:9
Frame rate mode             : Constant
Frame rate                  : 23.976 (24000/1001) FPS
Color space                 : YUV
Chroma subsampling          : 4:2:0
Bit depth                   : 8 bits
Bits/(Pixel*Frame)          : 0.042
Stream size                 : 1.70 GiB (69%)
Title                       : ...::: jeddak MIRCrew :::...
Writing library             : x265 3.5+1-f0c1022b6:[Linux][GCC 9.3.0][64 bit] 8bit+10bit+12bit
Encoding settings           : cpuid=1111039 / frame-threads=5 / wpp / no-pmode / no-pme / no-psnr / no-ssim / log-level=2 / input-csp=1 / input-res=1920x1080 / interlace=0 / total-frames=0 / level-idc=40 / high-tier=1 / uhd-bd=0 / ref=3 / no-allow-non-conformance / no-repeat-headers / annexb / no-aud / no-hrd / info / hash=0 / no-temporal-layers / open-gop / min-keyint=24 / keyint=240 / gop-lookahead=0 / bframes=4 / b-adapt=2 / b-pyramid / bframe-bias=0 / rc-lookahead=20 / lookahead-slices=6 / scenecut=40 / hist-scenecut=0 / radl=0 / no-splice / no-intra-refresh / ctu=64 / min-cu-size=8 / no-rect / no-amp / max-tu-size=32 / tu-inter-depth=1 / tu-intra-depth=1 / limit-tu=0 / rdoq-level=0 / dynamic-rd=0.00 / no-ssim-rd / signhide / no-tskip / nr-intra=0 / nr-inter=0 / no-constrained-intra / strong-intra-smoothing / max-merge=3 / limit-refs=1 / no-limit-modes / me=1 / subme=2 / merange=57 / temporal-mvp / no-frame-dup / no-hme / weightp / no-weightb / no-analyze-src-pics / deblock=0:0 / sao / no-sao-non-deblock / rd=3 / selective-sao=4 / early-skip / rskip / no-fast-intra / no-tskip-fast / no-cu-lossless / b-intra / no-splitrd-skip / rdpenalty=0 / psy-rd=2.00 / psy-rdoq=0.00 / no-rd-refine / no-lossless / cbqpoffs=0 / crqpoffs=0 / rc=abr / bitrate=2100 / qcomp=0.60 / qpstep=4 / stats-write=0 / stats-read=0 / ipratio=1.40 / pbratio=1.30 / aq-mode=2 / aq-strength=1.00 / cutree / zone-count=0 / no-strict-cbr / qg-size=32 / no-rc-grain / qpmax=69 / qpmin=0 / no-const-vbv / sar=1 / overscan=0 / videoformat=5 / range=0 / colorprim=1 / transfer=1 / colormatrix=1 / chromaloc=0 / display-window=0 / cll=0,0 / min-luma=0 / max-luma=255 / log2-max-poc-lsb=8 / vui-timing-info / vui-hrd-info / slices=1 / no-opt-qp-pps / no-opt-ref-list-length-pps / no-multi-pass-opt-rps / scenecut-bias=0.05 / hist-threshold=0.03 / no-opt-cu-delta-qp / no-aq-motion / no-hdr10 / no-hdr10-opt / no-dhdr10-opt / no-idr-recovery-sei / analysis-reuse-level=0 / analysis-save-reuse-level=0 / analysis-load-reuse-level=0 / scale-factor=0 / refine-intra=0 / refine-inter=0 / refine-mv=1 / refine-ctu-distortion=0 / no-limit-sao / ctu-info=0 / no-lowpass-dct / refine-analysis-type=0 / copy-pic=1 / max-ausize-factor=1.0 / no-dynamic-refine / no-single-sei / no-hevc-aq / no-svt / no-field / qp-adaptation-range=1.00 / scenecut-aware-qp=0conformance-window-offsets / right=0 / bottom=0 / decoder-max-rate=0 / no-vbv-live-multi-pass
Default                     : Yes
Forced                      : No
Color range                 : Limited
Color primaries             : BT.709
Transfer characteristics    : BT.709
Matrix coefficients         : BT.709
Duration_Source             : General_Duration

Audio #1
ID                          : 2
Format                      : AC-3
Format/Info                 : Audio Coding 3
Commercial name             : Dolby Digital
Codec ID                    : A_AC3
Duration                    : 1 h 56 min
Bit rate mode               : Constant
Bit rate                    : 448 kb/s
Channel(s)                  : 6 channels
Channel layout              : L R C LFE Ls Rs
Sampling rate               : 48.0 kHz
Frame rate                  : 31.250 FPS (1536 SPF)
Compression mode            : Lossy
Delay relative to video     : -5 ms
Stream size                 : 373 MiB (15%)
Title                       : iTA AC3 5.1
Language                    : Italian
Service kind                : Complete Main
Default                     : Yes
Forced                      : No

Audio #2
ID                          : 3
Format                      : AC-3
Format/Info                 : Audio Coding 3
Commercial name             : Dolby Digital
Codec ID                    : A_AC3
Duration                    : 1 h 56 min
Bit rate mode               : Constant
Bit rate                    : 448 kb/s
Channel(s)                  : 6 channels
Channel layout              : L R C LFE Ls Rs
Sampling rate               : 48.0 kHz
Frame rate                  : 31.250 FPS (1536 SPF)
Compression mode            : Lossy
Delay relative to video     : -5 ms
Stream size                 : 373 MiB (15%)
Title                       : ENG AC3 5.1
Language                    : English
Service kind                : Complete Main
Default                     : No
Forced                      : No

Text #1
ID                          : 4
Format                      : PGS
Codec ID                    : S_HDMV/PGS
Codec ID/Info               : Picture based subtitle format used on BDs/HD-DVDs
Duration                    : 1 h 56 min
Title                       : iTA NON UDENTI - PGS
Language                    : Italian
Default                     : No
Forced                      : No

Text #2
ID                          : 5
Format                      : PGS
Codec ID                    : S_HDMV/PGS
Codec ID/Info               : Picture based subtitle format used on BDs/HD-DVDs
Duration                    : 1 h 56 min
Title                       : ENG NON UDENTI - PGS
Language                    : English
Default                     : No
Forced                      : No

Menu
00:00:00.000                : :Capitolo 01
00:01:34.094                : :Capitolo 02
00:07:32.285                : :Capitolo 03
00:09:58.264                : :Capitolo 04
00:13:18.339                : :Capitolo 05
00:17:35.054                : :Capitolo 06
00:19:39.679                : :Capitolo 07
00:23:47.134                : :Capitolo 08
00:28:07.686                : :Capitolo 09
00:30:14.813                : :Capitolo 10
00:32:24.776                : :Capitolo 11
00:33:52.197                : :Capitolo 12
00:38:19.005                : :Capitolo 13
00:40:00.231                : :Capitolo 14
00:42:54.906                : :Capitolo 15
00:45:26.724                : :Capitolo 16
00:47:49.367                : :Capitolo 17
00:51:59.617                : :Capitolo 18
00:56:33.724                : :Capitolo 19
00:58:34.720                : :Capitolo 20
01:01:30.687                : :Capitolo 21
01:03:41.484                : :Capitolo 22
01:05:51.114                : :Capitolo 23
01:09:00.011                : :Capitolo 24
01:10:24.762                : :Capitolo 25
01:12:19.544                : :Capitolo 26
01:15:35.531                : :Capitolo 27
01:17:52.001                : :Capitolo 28
01:19:46.615                : :Capitolo 29
01:22:57.222                : :Capitolo 30
01:25:30.792                : :Capitolo 31
01:28:24.633                : :Capitolo 32
01:30:52.781                : :Capitolo 33
01:35:40.777                : :Capitolo 34
01:38:44.502                : :Capitolo 35
01:41:43.347                : :Capitolo 36
01:45:10.304                : :Capitolo 37
01:51:05.409                : :Capitolo 38
01:52:53.267                : :Capitolo 39
Info: Per scaricare devi usare un client come uTorrent o Transmission
AnnounceURL
udp://tracker.torrent.eu.org:451/announce
Hash fb14cccfe70bda96d3249e4ec4f6a918d40c7ae8
Peers seeds: 23 , leech: 4
Size 2.48 GB
Completato 1066x
Aggiunto 04.06.22 - 12:06:26
Uploader   jeddak1
Votazione (Voti: 0)


Condividi questo bittorrent:


html/blog:


bbcode/forum:




Aggiungi Commento