* Dettagli Torrent   globale  | Commenti (0) 


- Bronx - Rogue City (2020) 720p h264 Ac3 5.1 Ita Fre Sub Ita Eng-MIRCrew -


Download via torrent:
Categoria bittorrent BDRip
Descrizione
Bronx - Rogue City (2020) 720p h264 Ac3 5.1 Ita Fre Sub Ita Eng-MIRCrew


NO FOUND ONLY ORIGINAL RELEASE


My release is always in double track audio italian and Original audio
for select it use VLC or dvd player home
not use wmp

ENGLISH SUBTITLE INSIDE

Bronx - Rogue City (2020)

Quality MIRCrew on HD 720p da 2,2 gb








 

TITOLO : Bronx - Rogue City
REGIA : Olivier Marchal
ANNO : 2020
PAESE : Francia
DURATA : 116 Min.
GENERE : Crime, Azione, Drammatico



Lannick Gautry, Stanislas Merhar, Kaaris, David Belle, Patrick Catalifo, Jean Reno, Moussa Maaskri, Catherine Marchal, Francis Renaud, Erika Sainte, Jeanne Bournaud, Barbara Opsomer



Preso nel mirino della corruzione della polizia e delle bande in guerra del Marsiglia, un fedele poliziotto deve proteggere la sua squadra prendendo in mano la situazione.



Marseille. Everything begins with carnage worthy of the killing of the Bar du Telephone, caused by the men of the Orsoni clan. Richard Vronski, a cop of the anti-gang brigade with unorthodox methods, finds himself in charge of the investigation, facing his rivals of the BRB, commanded by Costa, a police major in the troubled actions. A new director, Divisional Commissioner Angel Leonetti arrives to tidy up Marseille and master the crazy dogs on his team.

 





[spoiler]
General

Complete name                            : Bronx (2020) 720p h264 Ac3 5.1 Ita Fre Sub Ita Eng-MIRCrew.mkv
Format                                   : Matroska
Format version                           : Version 2
File size                                : 2.25 GiB
Duration                                 : 1h 56mn
Overall bit rate                         : 2 769 Kbps
Movie name                               : MIRCrew
Encoded date                             : UTC 2021-05-20 20:21:59
Writing application                      : mkvmerge v5.8.0 ('No Sleep / Pillow&#39 built on Sep  2 2012 15:37:04
Writing library                          : Lavf54.63.100
COMMENT                                  : MIRcrew

Video
ID                                       : 1
Format                                   : AVC
Format/Info                              : Advanced Video Codec
Format profile                           : [email protected]
Format settings, CABAC                   : Yes
Format settings, ReFrames                : 2 frames
Codec ID                                 : V_MPEG4/ISO/AVC
Duration                                 : 1h 56mn
Bit rate                                 : 1 900 Kbps
Width                                    : 1 280 pixels
Height                                   : 528 pixels
Display aspect ratio                     : 2.40:1
Frame rate mode                          : Variable
Frame rate                               : 23.976 fps
Color space                              : YUV
Chroma subsampling                       : 4:2:0
Bit depth                                : 8 bits
Scan type                                : Progressive
Bits/(Pixel*Frame)                       : 0.117
Stream size                              : 1.48 GiB (66%)
Title                                    : MIRCrew
Writing library                          : x264 core 130 r2273
Encoding settings                        : cabac=1 / ref=2 / deblock=1:-1:-1
Language                                 : Italian
Default                                  : Yes
Forced                                   : No
DURATION                                 : 01:55:28.844000000

Audio #1
ID                                       : 2
Format                                   : AC-3
Format/Info                              : Audio Coding 3
Mode extension                           : CM (complete main)
Codec ID                                 : A_AC3
Duration                                 : 1h 56mn
Bit rate mode                            : Constant
Bit rate                                 : 448 Kbps
Channel(s)                               : 6 channels
Channel positions                        : Front: L C R, Side: L R, LFE
Sampling rate                            : 48.0 KHz
Bit depth                                : 16 bits
Compression mode                         : Lossy
Delay relative to video                  : -5ms
Stream size                              : 373 MiB (16%)
Title                                    : Ita Ac3 5.1
Language                                 : Italian
Default                                  : Yes
Forced                                   : No
DURATION                                 : 01:56:18.848000000

Audio #2
ID                                       : 3
Format                                   : AC-3
Format/Info                              : Audio Coding 3
Mode extension                           : CM (complete main)
Codec ID                                 : A_AC3
Duration                                 : 1h 56mn
Bit rate mode                            : Constant
Bit rate                                 : 448 Kbps
Channel(s)                               : 6 channels
Channel positions                        : Front: L C R, Side: L R, LFE
Sampling rate                            : 48.0 KHz
Bit depth                                : 16 bits
Compression mode                         : Lossy
Delay relative to video                  : -5ms
Stream size                              : 373 MiB (16%)
Title                                    : Fre Ac3 5.1
Language                                 : French
Default                                  : No
Forced                                   : No
DURATION                                 : 01:55:28.832000000

Text #1
ID                                       : 4
Format                                   : ASS
Codec ID                                 : S_TEXT/ASS
Codec ID/Info                            : Advanced Sub Station Alpha
Compression mode                         : Lossless
Title                                    : Forced ita
Language                                 : Italian
Default                                  : Yes
Forced                                   : Yes

Text #2
ID                                       : 5
Format                                   : ASS
Codec ID                                 : S_TEXT/ASS
Codec ID/Info                            : Advanced Sub Station Alpha
Compression mode                         : Lossless
Title                                    : Ita
Language                                 : Italian
Default                                  : No
Forced                                   : No

Text #3
ID                                       : 6
Format                                   : ASS
Codec ID                                 : S_TEXT/ASS
Codec ID/Info                            : Advanced Sub Station Alpha
Compression mode                         : Lossless
Title                                    : Eng
Language                                 : English
Default                                  : No
Forced                                   : No

Menu
00:00:00.000                             : :Capitolo 01
00:11:25.852                             : :Capitolo 02
00:19:24.080                             : :Capitolo 03
00:28:11.899                             : :Capitolo 04
00:39:19.399                             : :Capitolo 05
00:48:43.212                             : :Capitolo 06
00:58:33.218                             : :Capitolo 07
01:10:14.919                             : :Capitolo 08
01:18:11.937                             : :Capitolo 09
01:27:53.602                             : :Capitolo 10
01:37:12.076                             : :Capitolo 11
01:47:05.336                             : :Capitolo 12



[/spoiler]






Info: Per scaricare devi usare un client come uTorrent o Transmission
AnnounceURL
udp://tracker.torrent.eu.org:451/announce
Hash 227a65519bce91ad955aeec0693fb3d47e574b44
Peers seeds: 38 , leech: 5
Size 2.25 GB
Completato 883x
Aggiunto 14.05.22 - 18:05:26
Uploader   robbyrs
Votazione (Voti: 0)


Condividi questo bittorrent:


html/blog:


bbcode/forum:




Aggiungi Commento