* Dettagli Torrent   globale  | Commenti (0) 


- [2008] Le cronache di Narnia - Il principe Caspian [OPEN MATTE] [1080p h264 ITA-ENG] (by.phadron) -


Download via torrent:
Categoria bittorrent BDRip
Descrizione





Screen: QUI
Info: MIRCrew forum release

Unique ID : 187106919213785583270136334583741575584 (0x8CC37B5AA02905A7C6DBD8C4E55C71A0)
Complete name : [2008] Le cronache di Narnia - Il principe Caspian [OPEN MATTE] [1080p.x264.ITA-ENG] (by.phadron) MIRCrew.mkv
Format : Matroska
Format version : Version 4
File size : 12.6 GiB
Duration : 2 h 29 min
Overall bit rate mode : Variable
Overall bit rate : 12.1 Mb/s
Movie name : Le cronache di Narnia - Il principe Caspian (200 OPEN MATTE
Encoded date : UTC 2022-05-13 07:01:37
Writing application : mkvmerge v67.0.0 ('Under Stars&#39 64-bit
Writing library : libebml v1.4.2 + libmatroska v1.6.4
Cover : Yes
Attachments : Narnia-Caspian_open_matte_cover.jpg

Video
ID : 1
Format : AVC
Format/Info : Advanced Video Codec
Format profile : [email protected]
Format settings : CABAC / 4 Ref Frames
Format settings, CABAC : Yes
Format settings, Reference frames : 4 frames
Codec ID : V_MPEG4/ISO/AVC
Duration : 2 h 29 min
Bit rate mode : Variable
Bit rate : 11.2 Mb/s
Maximum bit rate : 15.0 Mb/s
Width : 1 920 pixels
Height : 1 080 pixels
Display aspect ratio : 16:9
Frame rate mode : Constant
Frame rate : 23.976 (24000/1001) FPS
Color space : YUV
Chroma subsampling : 4:2:0
Bit depth : 8 bits
Scan type : Progressive
Bits/(Pixel*Frame) : 0.225
Stream size : 11.7 GiB (93%)
Title : WEB-DL 1080p (Amazon)
Language : English
Default : Yes
Forced : No
Color range : Limited
Color primaries : BT.709
Transfer characteristics : BT.709
Matrix coefficients : BT.709

Audio #1
ID : 2
Format : AAC LC SBR
Format/Info : Advanced Audio Codec Low Complexity with Spectral Band Replication
Commercial name : HE-AAC
Format settings : Explicit
Codec ID : A_AAC-2
Duration : 2 h 29 min
Bit rate : 219 kb/s
Channel(s) : 6 channels
Channel layout : C L R Ls Rs LFE
Sampling rate : 48.0 kHz
Frame rate : 23.438 FPS (2048 SPF)
Compression mode : Lossy
Delay relative to video : 1 s 10 ms
Stream size : 234 MiB (2%)
Language : Italian
Default : Yes
Forced : No

Audio #2
ID : 3
Format : E-AC-3
Format/Info : Enhanced AC-3
Commercial name : Dolby Digital Plus
Codec ID : A_EAC3
Duration : 2 h 29 min
Bit rate mode : Constant
Bit rate : 640 kb/s
Channel(s) : 6 channels
Channel layout : L R C LFE Ls Rs
Sampling rate : 48.0 kHz
Frame rate : 31.250 FPS (1536 SPF)
Compression mode : Lossy
Stream size : 687 MiB (5%)
Language : English
Service kind : Complete Main
Default : No
Forced : No

Text #1
ID : 4
Format : UTF-8
Codec ID : S_TEXT/UTF8
Codec ID/Info : UTF-8 Plain Text
Duration : 3 s 753 ms
Bit rate : 89 b/s
Count of elements : 1
Stream size : 42.0 Bytes (0%)
Language : Italian
Default : Yes
Forced : Yes

Text #2
ID : 5
Format : UTF-8
Codec ID : S_TEXT/UTF8
Codec ID/Info : UTF-8 Plain Text
Duration : 2 h 16 min
Bit rate : 26 b/s
Count of elements : 866
Stream size : 26.8 KiB (0%)
Language : Italian
Default : No
Forced : No

Text #3
ID : 6
Format : UTF-8
Codec ID : S_TEXT/UTF8
Codec ID/Info : UTF-8 Plain Text
Duration : 2 h 28 min
Bit rate : 32 b/s
Count of elements : 1202
Stream size : 35.7 KiB (0%)
Title : SDH
Language : English
Default : No
Forced : No
24x7
Info: Per scaricare devi usare un client come uTorrent o Transmission
AnnounceURL
udp://tracker.torrent.eu.org:451/announce
Hash 0b0f5e5692d0a5a4565fc4e87e12387531d64cbf
Peers seeds: 2 , leech: 2
Size 12.64 GB
Completato 71x
Aggiunto 13.05.22 - 22:05:29
Uploader   phadron
Votazione (Voti: 0)


Condividi questo bittorrent:


html/blog:


bbcode/forum:




Aggiungi Commento