* Dettagli Torrent   globale  | Commenti (0) 


- Lassassino Fantasma - Viaje al vacío (1969) h264 Ac3 Ita Eng Sub Eng-MIRCrew.mkv -


Download via torrent:
Categoria bittorrent BDRip
Descrizione



[align=center]



[size=250]L'assassino fantasma o Il vuoto intorno  (1969)[/size]





[size=150]L'assassino fantasma o Il vuoto intorno (Viaje al vacío) è un film del 1969 diretto da Javier Setó.
Genere : Horror - Dim : 1,41 GiB[/size]

[img]https://i.imgur.com/0c2oPs0.png][/img]


[/align]


[size=120]

Titolo originale Viaje al vacío
Lingua originale spagnolo
Paese di produzione Spagna, Italia
Anno 1969
Durata 91 minuti
Genere thriller
Regia Javier Setó


Larry Ward: Peter / John
Teresa Gimpera: Denise
Giacomo Rossi Stuart: Gert Muller
Silvana Venturelli: Annie
Fernando Sánchez Polack: commissario
Eugenio Navarro: dottor Durán
Javier Rivera: dottor Hernández


Pino Locchi: Peter / John
Rita Savagnone: Denise
Cesare Barbetti: Gert Muller
Maria Pia Di Meo: Annie
Stefano Sibaldi: dottor Durán
Gino Baghetti: dottor Hernández



John e Peter, due gemelli, si assomigliano solo fisicamente e assai diverse, invece, sono le loro risorse economiche: il primo è divenuto molto ricco, il secondo invece è costretto, per vivere, a lavorare alle sue dipendenze. Per di più John ha redatto un testamento in cui s'è volontariamente dimenticato sia della moglie Denise, una ex ballerina, sia di Peter. I due, che sono amanti, decidono, per poter godere dei suoi soldi, di liberarsi di John, che soffre d'epilessia, facendolo impazzire. Dopo averlo fisicamente indebolito, somministrandogli un pericoloso medicinale e praticandogli una sorta di elettroshock, lo inducono a credere d'aver commesso adulterio e un omicidio, di cui, in realtà, è autore Peter. Sul punto di diventare realmente pazzo, John scopre l'intrigo di cui è vittima e, dopo aver ucciso il fratello, .................














[spoiler]
General
Unique ID                                : 187277508065291832338293126541831218932 (0x8CE45608A384ADBD87B7B23DDD1EA6F4)
Complete name                            : CutorrentL'assassino Fantasma - Viaje al vacío (1969) h264 Ac3 Ita Eng Sub Eng-MIRCrew.mkv
Format                                   : Matroska
Format version                           : Version 2
File size                                : 1.42 GiB
Duration                                 : 1 h 28 min
Overall bit rate                         : 2 282 kb/s
Movie name                               : MIRCrew
Encoded date                             : UTC 2022-03-28 17:09:09 / UTC 2022-03-20T23:23:26Z
Writing application                      : mkvmerge v5.8.0 ('No Sleep / Pillow&#39 built on Sep  2 2012 15:37:04
Writing library                          : libebml v1.2.3 + libmatroska v1.3.0 / Lavf55.12.0

Video
ID                                       : 1
Format                                   : AVC
Format/Info                              : Advanced Video Codec
Format profile                           : [email protected]
Format settings                          : CABAC / 4 Ref Frames
Format settings, CABAC                   : Yes
Format settings, Reference frames        : 4 frames
Codec ID                                 : V_MPEG4/ISO/AVC
Duration                                 : 1 h 28 min
Bit rate                                 : 1 900 kb/s
Width                                    : 1 200 pixels
Height                                   : 720 pixels
Display aspect ratio                     : 5:3
Frame rate mode                          : Constant
Frame rate                               : 24.000 FPS
Color space                              : YUV
Chroma subsampling                       : 4:2:0
Bit depth                                : 8 bits
Scan type                                : Progressive
Bits/(Pixel*Frame)                       : 0.092
Stream size                              : 1.15 GiB (81%)
Title                                    : MIRCrew
Writing library                          : x264 core 142 r2479 dd79a61
Encoding settings                        : cabac=1 / ref=1 / deblock=1:0:0 / analyse=0x1:0x111 / me=hex / subme=2 / psy=1 / psy_rd=1.00:0.00 / mixed_ref=0 / me_range=16 / chroma_me=1 / trellis=0 / 8x8dct=0 / cqm=0 / deadzone=21,11 / fast_pskip=1 / chroma_qp_offset=0 / threads=9 / lookahead_threads=3 / sliced_threads=0 / nr=0 / decimate=1 / interlaced=0 / bluray_compat=0 / constrained_intra=0 / bframes=3 / b_pyramid=2 / b_adapt=1 / b_bias=0 / direct=1 / weightb=1 / open_gop=0 / weightp=1 / keyint=240 / keyint_min=24 / scenecut=40 / intra_refresh=0 / rc_lookahead=10 / rc=abr / mbtree=1 / bitrate=1900 / ratetol=1.0 / qcomp=0.60 / qpmin=0 / qpmax=69 / qpstep=4 / vbv_maxrate=50000 / vbv_bufsize=62500 / nal_hrd=none / filler=0 / ip_ratio=1.40 / aq=1:1.00
Language                                 : Italian
Default                                  : Yes
Forced                                   : No
Color range                              : Limited
Color primaries                          : BT.709
Transfer characteristics                 : BT.709
Matrix coefficients                      : BT.709
Duration_Source                          : General_Duration

Audio #1
ID                                       : 2
Format                                   : AC-3
Format/Info                              : Audio Coding 3
Commercial name                          : Dolby Digital
Codec ID                                 : A_AC3
Duration                                 : 1 h 28 min
Bit rate mode                            : Constant
Bit rate                                 : 192 kb/s
Channel(s)                               : 2 channels
Channel layout                           : L R
Sampling rate                            : 48.0 kHz
Frame rate                               : 31.250 FPS (1536 SPF)
Compression mode                         : Lossy
Delay relative to video                  : -5 ms
Stream size                              : 122 MiB (8%)
Title                                    : Ita Ac3 2.0
Language                                 : Italian
Service kind                             : Complete Main
Default                                  : Yes
Forced                                   : No
Duration_Source                          : General_Duration

Audio #2
ID                                       : 3
Format                                   : AC-3
Format/Info                              : Audio Coding 3
Commercial name                          : Dolby Digital
Codec ID                                 : A_AC3
Duration                                 : 1 h 28 min
Bit rate mode                            : Constant
Bit rate                                 : 192 kb/s
Channel(s)                               : 2 channels
Channel layout                           : L R
Sampling rate                            : 48.0 kHz
Frame rate                               : 31.250 FPS (1536 SPF)
Compression mode                         : Lossy
Delay relative to video                  : -5 ms
Stream size                              : 122 MiB (8%)
Title                                    : Eng Ac3 2.0
Language                                 : English
Service kind                             : Complete Main
Default                                  : No
Forced                                   : No
Duration_Source                          : General_Duration

Text #1
ID                                       : 4
Format                                   : VobSub
Muxing mode                              : zlib
Codec ID                                 : S_VOBSUB
Codec ID/Info                            : Picture based subtitle format used on DVDs
Title                                    : Forced Ita
Language                                 : Italian
Default                                  : Yes
Forced                                   : Yes

Text #2
ID                                       : 5
Format                                   : VobSub
Muxing mode                              : zlib
Codec ID                                 : S_VOBSUB
Codec ID/Info                            : Picture based subtitle format used on DVDs
Title                                    : Eng
Language                                 : English
Default                                  : No
Forced                                   : No

Menu
00:00:00.000                             : :Capitolo 1
00:13:30.291                             : :Capitolo 2
00:27:54.791                             : :Capitolo 3
00:37:25.833                             : :Capitolo 4
00:50:35.791                             : :Capitolo 5
01:08:01.833                             : :Capitolo 6







[/spoiler]




SEEDBOX
[/size]


[magnet]magnet:?xt=urn:btih:CB859083F66BF568FDBCBEF3ED64D1F2970FA6E8&dn=L%27assassino%20Fantasma%20-%20Viaje%20al%20vac%C3%ADo%20(1969)%20h264%20Ac3%20Ita%20Eng%20Sub%20Eng-MIRCrew.mkv&tr=udp%3A%2F%2Ftracker.openbittorrent.com%3A80&tr=udp%3A%2F%2Fopentor.org%3A2710&tr=udp%3A%2F%2Ftracker.ccc.de%3A80&tr=udp%3A%2F%2Ftracker.blackunicorn.xyz%3A6969&tr=udp%3A%2F%2Ftracker.coppersurfer.tk%3A6969&tr=udp%3A%2F%2Ftracker.leechers-paradise.org%3A6969[/magnet]

Info: Per scaricare devi usare un client come uTorrent o Transmission
AnnounceURL
udp://tracker.openbittorrent.com:80/announce
Hash cb859083f66bf568fdbcbef3ed64d1f2970fa6e8
Peers seeds: 8 , leech: 0
Size 1.42 GB
Completato 10x
Aggiunto 13.05.22 - 17:05:11
Uploader   Lolabyte
Votazione (Voti: 0)


Condividi questo bittorrent:


html/blog:


bbcode/forum:




Aggiungi Commento