* Dettagli Torrent   globale  | Commenti (0) 


- The Ipcress File (1965) 720p h264 Ac3 Ita Eng Sub Ita Eng-MIRCrew.mkv -


Download via torrent:
Categoria bittorrent BDRip
Descrizione
[align=CENTER]







 [size=250][color=#000080] THE IPCRESS FILE – (1965)
[/size]

[size=150]The Ipcress File è un film del 1965 diretto da Sidney J. Furie.
spionaggio, thriller - Dim. 1,72
Gib



[img]https://i.imgur.com/0c2oPs0.png][/img][/align]


Titolo originale The Ipcress File
Lingua originale inglese
Paese di produzione Regno Unito
Anno 1965
Durata 102 min
Rapporto 2,35:1
Genere spionaggio, thriller
Regia Sidney J. Furie


Michael Caine: Harry Palmer
Nigel Green: Dalby
Guy Doleman: colonnello Ross
Sue Lloyd: Jean Courtney
Gordon Jackson: Carswell
Aubrey Richards: il dottore Radcliffe
Frank Gatliff: Bluejay
Thomas Baptiste: Barney
Oliver MacGreevy: Housemartin
Freda Bamford: Alice


Renzo Palmer: Harry Palmer
Stefano Sibaldi: Dalby
Rolf Tasna: Colonnello Ross
Luciano Melani: Carswell



Dal romanzo The Ipcress File (1962) di Len Deighton: l'agente Harry Palmer, che non ama molto il suo mestiere, deve investigare sul rapimento di uno scienziato trasportato al di là della cortina di ferro. Cade nelle mani di loschi figuri orientali che lo sottopongono al lavaggio del cervello. Un film di spionaggio intricato, spettacolare e narrato con una certa forza visiva. Uno dei primi ad avere come protagonista un agente segreto (l'ottimo Caine) con pregi e difetti dei comuni mortali. Sembra "di assistere a un'esibizione di Superman ancora travestito con gli abiti a buon mercato e gli occhiali di Clark Kent" (A. Walker). L'agente Palmer ritorna in Funerale a Berlino (1966) e Il cervello da un miliardo di dollari (1967).
La sceneggiatura, di Bill Canaway e James Doran, è basata sul romanzo di Len Deighton The IPCRESS File (1962). Ha ricevuto un premio BAFTA per il miglior film britannico uscito nel 1965. Nel 1999, è stato incluso al numero 59 nella lista BFI dei 100 migliori film britannici del 20 ° secolo.

Questo film e i suoi sequel erano un'alternativa deliberatamente negativa ai film di James Bond di grande successo, anche se alcuni membri del team di produzione erano precedentemente coinvolti nei film di 007.














[Spoiler]
General
Unique ID                                : 178755630853984595274613371681687329479 (0x867B150C4D1DDEFDBBFA23E46929DAC7)
Complete name                            : E:utorrentThe Ipcress File (1965) 720p h264 Ac3 Ita Eng Sub Ita Eng-MIRCrew.mkv
Format                                   : Matroska
Format version                           : Version 2
File size                                : 1.71 GiB
Duration                                 : 1 h 47 min
Overall bit rate                         : 2 279 kb/s
Movie name                               : MIRCrew
Encoded date                             : UTC 2022-03-30 11:03:49 / UTC 2022-03-09T09:24:20Z
Writing application                      : mkvmerge v5.8.0 ('No Sleep / Pillow&#39 built on Sep  2 2012 15:37:04
Writing library                          : libebml v1.2.3 + libmatroska v1.3.0 / Lavf55.12.0

Video
ID                                       : 1
Format                                   : AVC
Format/Info                              : Advanced Video Codec
Format profile                           : [email protected]
Format settings                          : CABAC / 4 Ref Frames
Format settings, CABAC                   : Yes
Format settings, Reference frames        : 4 frames
Codec ID                                 : V_MPEG4/ISO/AVC
Duration                                 : 1 h 47 min
Bit rate                                 : 1 900 kb/s
Width                                    : 1 280 pixels
Height                                   : 544 pixels
Display aspect ratio                     : 2.35:1
Frame rate mode                          : Constant
Frame rate                               : 24.000 FPS
Color space                              : YUV
Chroma subsampling                       : 4:2:0
Bit depth                                : 8 bits
Scan type                                : Progressive
Bits/(Pixel*Frame)                       : 0.114
Stream size                              : 1.39 GiB (81%)
Title                                    : MIRCrew
Writing library                          : x264 core 142 r2479 dd79a61
Encoding settings                        : cabac=1 / ref=1 / deblock=1:0:0 / analyse=0x1:0x111 / me=hex / subme=2 / psy=1 / psy_rd=1.00:0.00 / mixed_ref=0 / me_range=16 / chroma_me=1 / trellis=0 / 8x8dct=0 / cqm=0 / deadzone=21,11 / fast_pskip=1 / chroma_qp_offset=0 / threads=9 / lookahead_threads=3 / sliced_threads=0 / nr=0 / decimate=1 / interlaced=0 / bluray_compat=0 / constrained_intra=0 / bframes=3 / b_pyramid=2 / b_adapt=1 / b_bias=0 / direct=1 / weightb=1 / open_gop=0 / weightp=1 / keyint=240 / keyint_min=24 / scenecut=40 / intra_refresh=0 / rc_lookahead=10 / rc=abr / mbtree=1 / bitrate=1900 / ratetol=1.0 / qcomp=0.60 / qpmin=0 / qpmax=69 / qpstep=4 / vbv_maxrate=50000 / vbv_bufsize=62500 / nal_hrd=none / filler=0 / ip_ratio=1.40 / aq=1:1.00
Language                                 : Italian
Default                                  : Yes
Forced                                   : No
Color range                              : Limited
Color primaries                          : BT.709
Transfer characteristics                 : BT.709
Matrix coefficients                      : BT.709
Duration_Source                          : General_Duration

Audio #1
ID                                       : 2
Format                                   : AC-3
Format/Info                              : Audio Coding 3
Commercial name                          : Dolby Digital
Codec ID                                 : A_AC3
Duration                                 : 1 h 47 min
Bit rate mode                            : Constant
Bit rate                                 : 192 kb/s
Channel(s)                               : 2 channels
Channel layout                           : L R
Sampling rate                            : 48.0 kHz
Frame rate                               : 31.250 FPS (1536 SPF)
Compression mode                         : Lossy
Delay relative to video                  : -5 ms
Stream size                              : 148 MiB (8%)
Title                                    : Ita Ac3 2.0
Language                                 : Italian
Service kind                             : Complete Main
Default                                  : Yes
Forced                                   : No
Duration_Source                          : General_Duration

Audio #2
ID                                       : 3
Format                                   : AC-3
Format/Info                              : Audio Coding 3
Commercial name                          : Dolby Digital
Codec ID                                 : A_AC3
Duration                                 : 1 h 47 min
Bit rate mode                            : Constant
Bit rate                                 : 192 kb/s
Channel(s)                               : 2 channels
Channel layout                           : L R
Sampling rate                            : 48.0 kHz
Frame rate                               : 31.250 FPS (1536 SPF)
Compression mode                         : Lossy
Delay relative to video                  : -5 ms
Stream size                              : 148 MiB (8%)
Title                                    : Eng Ac3 2.0
Language                                 : English
Service kind                             : Complete Main
Default                                  : No
Forced                                   : No
Duration_Source                          : General_Duration

Text #1
ID                                       : 4
Format                                   : ASS
Codec ID                                 : S_TEXT/ASS
Codec ID/Info                            : Advanced Sub Station Alpha
Compression mode                         : Lossless
Title                                    : Ita
Language                                 : Italian
Default                                  : No
Forced                                   : No

Text #2
ID                                       : 5
Format                                   : ASS
Codec ID                                 : S_TEXT/ASS
Codec ID/Info                            : Advanced Sub Station Alpha
Compression mode                         : Lossless
Title                                    : Eng
Language                                 : English
Default                                  : No
Forced                                   : No









[/Spoiler]




SEEDBOX



Info: Per scaricare devi usare un client come uTorrent o Transmission
AnnounceURL
udp://tracker.torrent.eu.org:451/announce
Hash ae8264af459dea66ec3ddaea7731422a14486354
Peers seeds: 9 , leech: 2
Size 1.71 GB
Completato 355x
Aggiunto 13.05.22 - 17:05:29
Uploader   Lolabyte
Votazione (Voti: 0)


Condividi questo bittorrent:


html/blog:


bbcode/forum:




Aggiungi Commento