* Dettagli Torrent   globale  | Commenti (0) 


- Scherzi.Mortali.2020.ITA-ENG.1080p.BluRay.DDP5.1.x264-gattopollo.mkv -


Download via torrent:
Categoria bittorrent SerieTv
Descrizione
[center].:: TITOLO ::.[/center]

[center]Scherzi.Mortali.2020.ITA-ENG.1080p.BluRay.DDP5.1.x264-gattopollo[/center]

[center][/center]

[center].:: INFO FILM ::.[/center]

[center]
Data di uscita 2 Ottobre 2020 (USA)
Genere Horror , Giallo , Thriller
Anno 2020
Regia Jud Cremata
Paese USA
Durata 83 Min
IMDb

.:: TRAMA ::.


Un gruppo di ragazze adolescenti ha deciso di spaventare per scherzo il loro nuovo vicino solitario, ma lo scherzo si trasforma in terrore quando alcune di loro non fanno ritorno.




.:: SCREENSHOTS ::.

[/center]

[center].:: INFO TECNICHE ::.

Sorgente Video:  Let's.Scare.Julie.2020.1080p.BluRay.DD+5.1 x264-iFT
Sorgente Audio : AMZN
Risoluzione: 1920x1038, x264
Audio 1: ITA E-AC3 6ch @640Kb/s
Audio 2: ENG E-AC3 6ch @1024Kb/s
Sottotitoli: ITA FORCED, ITA FULL, ENG FULL, ENG SDH

[center][color=red].:: MEDIAINFO ::.
[/center]


Code

General
Unique ID                                : 240256333988278311046909915315496197978 (0xB4BFAFD1D758DB1D5C9EB2A3922E9F5A)
Complete name                            : Scherzi.Mortali.2020.ITA-ENG.1080p.BluRay.DDP5.1 x264-gattopollo.mkv
Format                                   : Matroska
Format version                           : Version 4
File size                                : 9.34 GiB
Duration                                 : 1 h 23 min
Overall bit rate                         : 16.1 Mb/s
Encoded date                             : UTC 2022-05-12 20:33:21
Writing application                      : mkvmerge v67.0.0 ('Under Stars&#39 64-bit
Writing library                          : libebml v1.4.2 + libmatroska v1.6.4

Video
ID                                       : 1
Format                                   : AVC
Format/Info                              : Advanced Video Codec
Format profile                           : Hig[email protected]
Format settings                          : CABAC / 4 Ref Frames
Format settings, CABAC                   : Yes
Format settings, Reference frames        : 4 frames
Codec ID                                 : V_MPEG4/ISO/AVC
Duration                                 : 1 h 23 min
Bit rate                                 : 14.4 Mb/s
Width                                    : 1 920 pixels
Height                                   : 1 038 pixels
Display aspect ratio                     : 1.85:1
Frame rate mode                          : Constant
Frame rate                               : 23.976 (24000/1001) FPS
Color space                              : YUV
Chroma subsampling                       : 4:2:0
Bit depth                                : 8 bits
Scan type                                : Progressive
Bits/(Pixel*Frame)                       : 0.302
Stream size                              : 8.38 GiB (90%)
Writing library                          : x264 core 161 r3018+53 ~ Encoded by Mocunaman in Portugal
Encoding settings                        : cabac=1 / ref=4 / deblock=1:-3:-3 / analyse=0x3:0x113 / me=umh / subme=11 / psy=1 / fade_compensate=0.00 / psy_rd=1.00:0.00 / mixed_ref=1 / me_range=32 / chroma_me=1 / trellis=2 / 8x8dct=1 / cqm=0 / deadzone=21,11 / fast_pskip=0 / chroma_qp_offset=-2 / threads=32 / lookahead_threads=5 / sliced_threads=0 / nr=0 / decimate=0 / interlaced=0 / bluray_compat=0 / constrained_intra=0 / fgo=0 / bframes=8 / b_pyramid=2 / b_adapt=2 / b_bias=0 / direct=3 / weightb=1 / open_gop=0 / weightp=2 / keyint=250 / keyint_min=23 / scenecut=40 / intra_refresh=0 / rc_lookahead=60 / rc=crf / mbtree=0 / crf=19.0000 / qcomp=0.65 / qpmin=0:0:0 / qpmax=69:69:69 / qpstep=4 / vbv_maxrate=62500 / vbv_bufsize=78125 / crf_max=0.0 / nal_hrd=none / filler=0 / ip_ratio=1.30 / pb_ratio=1.20 / aq=3:0.90 / aq-sensitivity=10.00 / aq-factor=1.00:1.00:1.00 / aq2=0 / aq3=0 / zones=1104,9417,crf=18.5/24129,24916,crf=18.5/38020,43132,crf=18.5/48628,63748,crf=18.5/64900,108676,crf=18.3
Language                                 : English
Default                                  : Yes
Forced                                   : No
Color range                              : Limited
Color primaries                          : BT.709
Transfer characteristics                 : BT.709
Matrix coefficients                      : BT.709

Audio #1
ID                                       : 2
Format                                   : E-AC-3
Format/Info                              : Enhanced AC-3
Commercial name                          : Dolby Digital Plus
Codec ID                                 : A_EAC3
Duration                                 : 1 h 22 min
Bit rate mode                            : Constant
Bit rate                                 : 640 kb/s
Channel(s)                               : 6 channels
Channel layout                           : L R C LFE Ls Rs
Sampling rate                            : 48.0 kHz
Frame rate                               : 31.250 FPS (1536 SPF)
Compression mode                         : Lossy
Delay relative to video                  : 6 s 6 ms
Stream size                              : 380 MiB (4%)
Language                                 : Italian
Service kind                             : Complete Main
Default                                  : Yes
Forced                                   : No

Audio #2
ID                                       : 3
Format                                   : E-AC-3
Format/Info                              : Enhanced AC-3
Commercial name                          : Dolby Digital Plus
Codec ID                                 : A_EAC3
Duration                                 : 1 h 23 min
Bit rate mode                            : Constant
Bit rate                                 : 1 024 kb/s
Channel(s)                               : 6 channels
Channel layout                           : L R C LFE Ls Rs
Sampling rate                            : 48.0 kHz
Frame rate                               : 31.250 FPS (1536 SPF)
Compression mode                         : Lossy
Stream size                              : 608 MiB (6%)
Language                                 : English
Service kind                             : Complete Main
Default                                  : No
Forced                                   : No

Text #1
ID                                       : 4
Format                                   : UTF-8
Codec ID                                 : S_TEXT/UTF8
Codec ID/Info                            : UTF-8 Plain Text
Duration                                 : 34 min 45 s
Bit rate                                 : 0 b/s
Count of elements                        : 7
Stream size                              : 132 Bytes (0%)
Title                                    : Forced
Language                                 : Italian
Default                                  : Yes
Forced                                   : Yes

Text #2
ID                                       : 5
Format                                   : UTF-8
Codec ID                                 : S_TEXT/UTF8
Codec ID/Info                            : UTF-8 Plain Text
Duration                                 : 1 h 17 min
Bit rate                                 : 57 b/s
Count of elements                        : 911
Stream size                              : 32.3 KiB (0%)
Language                                 : Italian
Default                                  : No
Forced                                   : No

Text #3
ID                                       : 6
Format                                   : UTF-8
Codec ID                                 : S_TEXT/UTF8
Codec ID/Info                            : UTF-8 Plain Text
Duration                                 : 1 h 16 min
Bit rate                                 : 68 b/s
Count of elements                        : 1392
Stream size                              : 38.4 KiB (0%)
Language                                 : English
Default                                  : No
Forced                                   : No

Text #4
ID                                       : 7
Format                                   : UTF-8
Codec ID                                 : S_TEXT/UTF8
Codec ID/Info                            : UTF-8 Plain Text
Duration                                 : 1 h 18 min
Bit rate                                 : 75 b/s
Count of elements                        : 1616
Stream size                              : 43.7 KiB (0%)
Title                                    : SDH
Language                                 : English
Default                                  : No
Forced                                   : No

Menu
00:00:00.000                             : en:Chapter 01
00:05:55.605                             : en:Chapter 02
00:14:10.641                             : en:Chapter 03
00:19:34.590                             : en:Chapter 04
00:24:53.283                             : en:Chapter 05
00:32:29.447                             : en:Chapter 06
00:41:04.003                             : en:Chapter 07
00:48:27.363                             : en:Chapter 08
00:55:51.807                             : en:Chapter 09
01:02:51.476                             : en:Chapter 10
01:11:53.142                             : en:Chapter 11
01:18:36.879                             : en:Chapter 12





[center].:: TORRENT LINK ::.[/center]

[center]Scherzi.Mortali.2020.ITA-ENG.1080p.BluRay.DDP5.1.x264-gattopollo[/center]



Info: Per scaricare devi usare un client come uTorrent o Transmission
AnnounceURL
udp://tracker.opentrackr.org:1337/announce
Hash 1ba35c024566e06833d7b33f6b11b4e007cfc348
Peers seeds: 25 , leech: 1
Size 9.34 GB
Completato 335x
Aggiunto 13.05.22 - 00:05:12
Uploader   ppb1
Votazione (Voti: 0)


Condividi questo bittorrent:


html/blog:


bbcode/forum:




Aggiungi Commento