* Dettagli Torrent   globale  | Commenti (0) 


- Balle Spaziali (1987) 720p h264 Ac3 5.1 Ita Eng Sub Ita Eng-MIRCrew -


Download via torrent:
Categoria bittorrent BDRip
Descrizione
Spaceball - Balle Spaziali (1987) 720p h264 Ac3 5.1 Ita Eng Sub Ita Eng-MIRCrew


NO FOUND ONLY ORIGINAL RELEASE


My release is always in double track audio italian and Original audio
for select it use VLC or dvd player home
not use wmp

Balle Spaziali - Spaceball (1987)

Quality MIRCrew on HD 720p da 1,8 gb




 




Balle spaziali (Spaceballs) è un film parodia del 1987 prodotto, interpretato e diretto da Mel Brooks. È una commedia fantascientifica, parodia della saga di Star Wars e di altre famose serie di genere fantascientifico quali Star Trek, Alien e Il pianeta delle scimmie.

SPACEBALLS was a childhood favourite of mine and I'm pleased to see that it still holds up today for audiences. It's a loving spoof of the whole STAR WARS franchise with Mel Brooks on top form as he mercilessly ribs George Lucas for his addition to merchandising, ridiculous costumes, plot elements, and the like.

 

Titolo originale Spaceballs
Paese di produzione Stati Uniti d'America
Anno 1987
Durata 96 min
Rapporto 1,85:1
Genere comico, fantascienza, azione, avventura, satirico
Regia Mel Brooks
Soggetto Mel Brooks, Thomas Meehan, Ronny Graham
Sceneggiatura Mel Brooks, Thomas Meehan, Ronny Graham
Produttore Mel Brooks
Fotografia Nick McLean
Montaggio Conrad Buff IV
Effetti speciali Peter Albiez, Peter Donen per la Apogee Inc.
Musiche John Morris
Scenografia Terence Marsh, John Franco Jr., Harold Michelson
Costumi Donfeld
Trucco Ben Nye Jr., Ken Diaz, Melanie Leavitt



   Bill Pullman: Stella Solitaria
   John Candy: Ruttolomeo
   Daphne Zuniga: Principessa Vespa
   Rick Moranis: Lord Casco Nero
   Mel Brooks: Presidente Scrocco/Yogurt
   George Wyner: Colonnello Nunziatella
   Dick Van Patten: Re Rolando
   Lorene Yarnell: Dorothy
   Jim J. Bullock: Principe Valium
   Leslie Bevis: Comandantessa Zircon
   Bubba Smith: Soldato
   Dom DeLuise: Pizza Margherita
   Michael Winslow: Tecnico radar
   John Hurt: Kane
   Tim Russ: Soldato
   Jeff MacGregor: Snotty
   Brenda Strong: Assistente Dr. Schlotkin



Sul pianeta Druidia, la principessa Vespa è promessa sposa al catalettico principe Valium; riluttante alle nozze, fugge nello spazio, accompagnata dalla sua damigella-droide Dorothy.



On the peaceful planet Druidia, King Roland attempts to marry his daughter Princess Vespa to Prince Valium, but Vespa and her loyal droid Dot Matrix escape during her wedding.

 
















[spoiler]
General

Complete name                            : Balle Spaziali - Spaceball (1987) 720p h264 Ac3 5.1 Ita Eng Sub Ita Eng-MIRCrew.mkv
Format                                   : Matroska
Format version                           : Version 2
File size                                : 1.79 GiB
Duration                                 : 1h 36mn
Overall bit rate                         : 2 661 Kbps
Movie name                               : MIRCrew
Encoded date                             : UTC 2022-04-30T14:37:42Z
Writing application                      : mkvmerge v5.8.0 ('No Sleep / Pillow&#39 built on Sep  2 2012 15:37:04
Writing library                          : Lavf55.12.0

Video
ID                                       : 1
Format                                   : AVC
Format/Info                              : Advanced Video Codec
Format profile                           : [email protected]
Format settings, CABAC                   : Yes
Format settings, ReFrames                : 4 frames
Codec ID                                 : V_MPEG4/ISO/AVC
Duration                                 : 1h 36mn
Bit rate                                 : 1 900 Kbps
Width                                    : 1 280 pixels
Height                                   : 688 pixels
Display aspect ratio                     : 1.860
Frame rate mode                          : Variable / Variable
Frame rate                               : 23.976 fps
Color space                              : YUV
Chroma subsampling                       : 4:2:0
Bit depth                                : 8 bits
Scan type                                : Progressive
Bits/(Pixel*Frame)                       : 0.090
Stream size                              : 1.24 GiB (69%)
Title                                    : MIRCrew
Writing library                          : x264 core 142 r2479 dd79a61
Encoding settings                        : cabac=1 / ref=1 / deblock=1:0:0
Language                                 : Italian
Default                                  : Yes
Forced                                   : No
Color primaries                          : BT.709-5, BT.1361, IEC 61966-2-4, SMPTE RP177
Transfer characteristics                 : BT.709-5, BT.1361
Matrix coefficients                      : BT.709-5, BT.1361, IEC 61966-2-4 709, SMPTE RP177

Audio #1
ID                                       : 2
Format                                   : AC-3
Format/Info                              : Audio Coding 3
Mode extension                           : CM (complete main)
Codec ID                                 : A_AC3
Duration                                 : 1h 36mn
Bit rate mode                            : Constant
Bit rate                                 : 384 Kbps
Channel(s)                               : 6 channels
Channel positions                        : Front: L C R, Side: L R, LFE
Sampling rate                            : 48.0 KHz
Bit depth                                : 16 bits
Compression mode                         : Lossy
Delay relative to video                  : -5ms
Stream size                              : 264 MiB (14%)
Title                                    : Ita Ac3 5.1
Language                                 : Italian
Default                                  : Yes
Forced                                   : No

Audio #2
ID                                       : 3
Format                                   : AC-3
Format/Info                              : Audio Coding 3
Mode extension                           : CM (complete main)
Codec ID                                 : A_AC3
Duration                                 : 1h 36mn
Bit rate mode                            : Constant
Bit rate                                 : 384 Kbps
Channel(s)                               : 6 channels
Channel positions                        : Front: L C R, Side: L R, LFE
Sampling rate                            : 48.0 KHz
Bit depth                                : 16 bits
Compression mode                         : Lossy
Delay relative to video                  : -5ms
Stream size                              : 264 MiB (14%)
Title                                    : Eng Ac3 5.1
Language                                 : English
Default                                  : No
Forced                                   : No

Text #1
ID                                       : 4
Format                                   : ASS
Codec ID                                 : S_TEXT/ASS
Codec ID/Info                            : Advanced Sub Station Alpha
Compression mode                         : Lossless
Title                                    : Forced ita
Language                                 : Italian
Default                                  : Yes
Forced                                   : Yes

Text #2
ID                                       : 5
Format                                   : ASS
Codec ID                                 : S_TEXT/ASS
Codec ID/Info                            : Advanced Sub Station Alpha
Compression mode                         : Lossless
Title                                    : Ita
Language                                 : Italian
Default                                  : No
Forced                                   : No

Text #3
ID                                       : 6
Format                                   : ASS
Codec ID                                 : S_TEXT/ASS
Codec ID/Info                            : Advanced Sub Station Alpha
Compression mode                         : Lossless
Title                                    : Eng
Language                                 : English
Default                                  : No
Forced                                   : No

Menu
00:00:00.000                             : :Logo/Main Title
00:01:52.914                             : :Ove His Helmet
00:07:13.109                             : :Runaway Bride
00:09:38.004                             : izza Wants Dough
00:13:45.751                             : residential Headache
00:16:58.694                             : :Family of Expletives
00:18:24.446                             : :Make a Deal
00:19:50.032                             : :Jammed
00:22:40.285                             : :Getting Princess Vespa
00:26:49.701                             : :Ludicrous Speed
00:30:16.783                             : :Sandy Stop
00:32:54.857                             : :The Bare Necessities
00:34:55.436                             : :Instant Replay
00:37:13.658                             : :Living Without Love
00:40:51.083                             : :Li'l Red Desert Hoods
00:43:46.550                             : :Keeper of the Schwartz
00:46:59.743                             : :Combing the Desert
00:48:04.266                             : :Schwartz Training
00:49:57.004                             : :The Lure
00:52:35.036                             : :Yogurt's Gift
00:53:33.595                             : olls, a Love Story
00:55:00.307                             : :A Devious Plan
00:58:24.344                             : :Trouble She's Seen
01:03:53.256                             : :Mega Maid!
01:07:13.581                             : :The Ear of the Storm
01:10:42.414                             : :I'll Show You Mine
01:16:30.512                             : :How Self-Destructive
01:20:07.145                             : :Last Call for Pizza
01:21:45.535                             : :"He Had the Special"
01:24:29.616                             : :"A Certified Prince"
01:28:05.790                             : :Stop That Wedding
01:30:40.528                             : :End Credits


[/spoiler]



Info: Per scaricare devi usare un client come uTorrent o Transmission
AnnounceURL
udp://tracker.torrent.eu.org:451/announce
Hash a21accb6a9d70b7f47a7882b6b3e4029bb570ecc
Peers seeds: 24 , leech: 5
Size 1.79 GB
Completato 515x
Aggiunto 12.05.22 - 23:05:18
Uploader   robbyrs
Votazione (Voti: 0)


Condividi questo bittorrent:


html/blog:


bbcode/forum:




Aggiungi Commento