* Dettagli Torrent   globale  | Commenti (0) 


- [2005] Le cronache di Narnia - Il leone, la strega e l'armadio [OPEN MATTE] [1080p h264 ITA-ENG] -


Download via torrent:
Categoria bittorrent BDRip
Descrizione





Screen: QUI
Info: MIRCrew forum release

Unique ID                                : 74567116221105152120737776686998136765 (0x38191AACD49690E24F3B1BA5DEF6A7BD)
Complete name                            : [2005] Le cronache di Narnia - Il leone, la strega e l'armadio [OPEN MATTE] [1080p.x264.ITA-ENG] (by.phadron) MIRCrew.mkv
Format                                   : Matroska
Format version                           : Version 4
File size                                : 11.1 GiB
Duration                                 : 2 h 23 min
Overall bit rate mode                    : Variable
Overall bit rate                         : 11.1 Mb/s
Movie name                               : Le cronache di Narnia - Il leone, la strega e l'armadio (2005) OPENMATTE
Encoded date                             : UTC 2022-05-12 17:11:28
Writing application                      : mkvmerge v67.0.0 ('Under Stars&#39 64-bit
Writing library                          : libebml v1.4.2 + libmatroska v1.6.4
Attachments                              : narnia_leone_openmatte.jpg

Video
ID                                       : 1
Format                                   : AVC
Format/Info                              : Advanced Video Codec
Format profile                           : [email protected]
Format settings                          : CABAC / 4 Ref Frames
Format settings, CABAC                   : Yes
Format settings, Reference frames        : 4 frames
Codec ID                                 : V_MPEG4/ISO/AVC
Duration                                 : 2 h 23 min
Bit rate mode                            : Variable
Bit rate                                 : 9 969 kb/s
Maximum bit rate                         : 15.0 Mb/s
Width                                    : 1 920 pixels
Height                                   : 1 080 pixels
Display aspect ratio                     : 16:9
Frame rate mode                          : Constant
Frame rate                               : 23.976 (24000/1001) FPS
Color space                              : YUV
Chroma subsampling                       : 4:2:0
Bit depth                                : 8 bits
Scan type                                : Progressive
Bits/(Pixel*Frame)                       : 0.201
Stream size                              : 9.97 GiB (90%)
Language                                 : English
Default                                  : Yes
Forced                                   : No
Color range                              : Limited
Color primaries                          : BT.709
Transfer characteristics                 : BT.709
Matrix coefficients                      : BT.709

Audio #1
ID                                       : 2
Format                                   : E-AC-3
Format/Info                              : Enhanced AC-3
Commercial name                          : Dolby Digital Plus
Codec ID                                 : A_EAC3
Duration                                 : 2 h 23 min
Bit rate mode                            : Constant
Bit rate                                 : 640 kb/s
Channel(s)                               : 6 channels
Channel layout                           : L R C LFE Ls Rs
Sampling rate                            : 48.0 kHz
Frame rate                               : 31.250 FPS (1536 SPF)
Compression mode                         : Lossy
Stream size                              : 655 MiB (6%)
Title                                    : Original | WEB-DL
Language                                 : English
Service kind                             : Complete Main
Default                                  : No
Forced                                   : No

Audio #2
ID                                       : 3
Format                                   : AC-3
Format/Info                              : Audio Coding 3
Commercial name                          : Dolby Digital
Codec ID                                 : A_AC3
Duration                                 : 2 h 23 min
Bit rate mode                            : Constant
Bit rate                                 : 448 kb/s
Channel(s)                               : 6 channels
Channel layout                           : L R C LFE Ls Rs
Sampling rate                            : 48.0 kHz
Frame rate                               : 31.250 FPS (1536 SPF)
Compression mode                         : Lossy
Stream size                              : 459 MiB (4%)
Language                                 : Italian
Service kind                             : Complete Main
Default                                  : Yes
Forced                                   : No

Text #1
ID                                       : 4
Format                                   : UTF-8
Codec ID                                 : S_TEXT/UTF8
Codec ID/Info                            : UTF-8 Plain Text
Duration                                 : 2 h 11 min
Bit rate                                 : 32 b/s
Count of elements                        : 1041
Stream size                              : 31.2 KiB (0%)
Title                                    : Original | Full | Blu-Ray
Language                                 : English
Default                                  : No
Forced                                   : No

Text #2
ID                                       : 5
Format                                   : UTF-8
Codec ID                                 : S_TEXT/UTF8
Codec ID/Info                            : UTF-8 Plain Text
Duration                                 : 2 h 21 min
Bit rate                                 : 38 b/s
Count of elements                        : 1451
Stream size                              : 40.1 KiB (0%)
Title                                    : Original | SDH | WEB-DL
Language                                 : English
Default                                  : No
Forced                                   : No

Menu
00:00:00.000                             : en:Introduction
00:07:07.636                             : en:Mrs. MacReady
00:11:15.049                             : en:The Wardrobe
00:18:23.144                             : en:Mr. Tumnus' House
00:24:34.223                             : en:Just Your Imagination
00:29:45.784                             : en:Hail the Queen!
00:34:55.760                             : eneter, Wake Up!
00:39:29.826                             : en:The World of Narnia
00:46:50.975                             : en:Beavers' Home
00:50:23.354                             : en:Behold the Queen's Castle
00:56:43.150                             : en:They're After Us!
01:01:15.505                             : en:The Queen's Lair
01:12:16.749                             : en:Across the Melting River
01:18:57.232                             : en:Aslan's Camp
01:24:36.405                             : en:Sir Peter
01:31:49.879                             : en:The Lion and the Witch
01:37:41.606                             : en:Aslan's Sacrifice
01:46:13.617                             : en:You Have to Lead Us
01:49:13.881                             : en:Battle for Narnia
01:52:39.169                             : en:Aslan's Resurrection
01:55:00.727                             : enhoenix
01:59:29.079                             : eneter vs. the Witch
02:05:30.022                             : en:The Royal Coronation
02:11:34.053                             : en:Credits
Info: Per scaricare devi usare un client come uTorrent o Transmission
AnnounceURL
udp://tracker.torrent.eu.org:451/announce
Hash 2d4f9d5ca7464e6c2ea9349c6d99b094174ef4d5
Peers seeds: 8 , leech: 2
Size 11.06 GB
Completato 96x
Aggiunto 12.05.22 - 22:05:29
Uploader   phadron
Votazione (Voti: 0)


Condividi questo bittorrent:


html/blog:


bbcode/forum:




Aggiungi Commento