* Dettagli Torrent   globale  | Commenti (0) 


- Qui.Rido.Io.2021.iTALiAN.AC3.SUB.iTA.ENG.BluRay.HEVC.1080p.x265.jeddak-MIRCrew -


Download via torrent:
Categoria bittorrent BDRip
Descrizione





Qui Rido Io


Titolo originale: Qui Rido Io
Genere: Biografico, Drammatico
Anno: 2021
Regia: Mario Martone
Attori: Toni Servillo, Maria Nazionale, Cristiana Dell'Anna, Antonia Truppo, Paolo Pierobon, Eduardo Scarpetta, Lino Musella, Roberto De Francesco, Gianfelice Imparato, Giovanni Mauriello, Iaia Forte, Roberto Caccioppoli, Chiara Baffi, Alessandro Manna, Lucrezia Guidone, Elena Ghiaurov, Gigio Morra
Paese: Italia, Spagna
Durata: 133 min
Distribuzione: 01 Distribution
Sceneggiatura: Mario Martone
Fotografia: Renato Berta
Montaggio: Jacopo Quadri
Produzione: Indigo Film e Publispei con Rai Cinema



Qui rido io, il film diretto da Mario Martone, è incentrato sulla figura del celebre attore e commediografo Eduardo Scarpetta, interpretato da Toni Servillo, nonché padre di un altro grande del panorama teatrale italiano, Eduardo De Filippo. Scarpetta è stato una figura chiave del teatro italiano, che ha messo in scena opere diventate presto elementi storici saldi nella cultura nostrana e che l'hanno consacrato come uno dei grandi maestri della risata del Bel Paese.
Una vita dedicata al palcoscenico, che gli ha portato successi, ma anche controversie, memorabile infatti la diatriba con Gabriele D'Annunzio per una versione parodiata del Vate ne Il figlio di Iorio. Lo stesso De Filippo, suo figlio, non ha mai parlato di lui in termini di padre, ma ha sempre definito il genitore un grande attore, come se la grandezza attoriale di Scarpetta superasse il legame di familiarità tra i due.





















General
Unique ID                   : 218654315052958159927040152082263437612 (0xA47F4A0E7354A16E8E00DC93EEC9F12C)
Complete name               : Qui.Rido.Io.2021.iTALiAN.AC3.SUB.iTA.ENG.BluRay.HEVC.1080p.x265.jeddak-MIRCrew.mkv
Format                      : Matroska
Format version              : Version 2
File size                   : 2.40 GiB
Duration                    : 2 h 12 min
Overall bit rate            : 2 590 kb/s
Movie name                  : Qui.Rido.Io.2021.iTALiAN.AC3.SUB.iTA.ENG.BluRay.HEVC.1080p.x265.jeddak-MIRCrew
Encoded date                : UTC 2021-12-31 07:33:09
Writing application         : mkvmerge v5.6.0 ( 'Kenya Kane' ) built on May 27 2012 16:44:04
Writing library             : libebml v1.2.3 + libmatroska v1.3.0 / Lavf58.29.100

Video
ID                          : 1
Format                      : HEVC
Format/Info                 : High Efficiency Video Coding
Format profile              : [email protected]@Main
Codec ID                    : V_MPEGH/ISO/HEVC
Duration                    : 2 h 12 min
Bit rate                    : 2 090 kb/s
Width                       : 1 920 pixels
Height                      : 800 pixels
Display aspect ratio        : 2.40:1
Frame rate mode             : Constant
Frame rate                  : 25.000 FPS
Color space                 : YUV
Chroma subsampling          : 4:2:0
Bit depth                   : 8 bits
Bits/(Pixel*Frame)          : 0.054
Stream size                 : 1.94 GiB (81%)
Title                       : ...::: jeddak MIRCrew :::...
Writing library             : x265 3.2.1+1-b5c86a64bbbe:[Linux][GCC 9.2.0][64 bit] 8bit+10bit+12bit
Encoding settings           : cpuid=1111039 / frame-threads=5 / wpp / no-pmode / no-pme / no-psnr / no-ssim / log-level=2 / input-csp=1 / input-res=1920x800 / interlace=0 / total-frames=0 / level-idc=40 / high-tier=1 / uhd-bd=0 / ref=3 / no-allow-non-conformance / no-repeat-headers / annexb / no-aud / no-hrd / info / hash=0 / no-temporal-layers / open-gop / min-keyint=25 / keyint=250 / gop-lookahead=0 / bframes=4 / b-adapt=2 / b-pyramid / bframe-bias=0 / rc-lookahead=20 / lookahead-slices=5 / scenecut=40 / radl=0 / no-splice / no-intra-refresh / ctu=64 / min-cu-size=8 / no-rect / no-amp / max-tu-size=32 / tu-inter-depth=1 / tu-intra-depth=1 / limit-tu=0 / rdoq-level=0 / dynamic-rd=0.00 / no-ssim-rd / signhide / no-tskip / nr-intra=0 / nr-inter=0 / no-constrained-intra / strong-intra-smoothing / max-merge=3 / limit-refs=1 / no-limit-modes / me=1 / subme=2 / merange=57 / temporal-mvp / no-hme / weightp / no-weightb / no-analyze-src-pics / deblock=0:0 / sao / no-sao-non-deblock / rd=3 / selective-sao=4 / early-skip / rskip / no-fast-intra / no-tskip-fast / no-cu-lossless / b-intra / no-splitrd-skip / rdpenalty=0 / psy-rd=2.00 / psy-rdoq=0.00 / no-rd-refine / no-lossless / cbqpoffs=0 / crqpoffs=0 / rc=abr / bitrate=2100 / qcomp=0.60 / qpstep=4 / stats-write=0 / stats-read=0 / ipratio=1.40 / pbratio=1.30 / aq-mode=2 / aq-strength=1.00 / cutree / zone-count=0 / no-strict-cbr / qg-size=32 / no-rc-grain / qpmax=69 / qpmin=0 / no-const-vbv / sar=1 / overscan=0 / videoformat=5 / range=0 / colorprim=1 / transfer=1 / colormatrix=1 / chromaloc=0 / display-window=0 / cll=0,0 / min-luma=0 / max-luma=255 / log2-max-poc-lsb=8 / vui-timing-info / vui-hrd-info / slices=1 / no-opt-qp-pps / no-opt-ref-list-length-pps / no-multi-pass-opt-rps / scenecut-bias=0.05 / no-opt-cu-delta-qp / no-aq-motion / no-hdr / no-hdr-opt / no-dhdr10-opt / no-idr-recovery-sei / analysis-reuse-level=5 / scale-factor=0 / refine-intra=0 / refine-inter=0 / refine-mv=1 / refine-ctu-distortion=0 / no-limit-sao / ctu-info=0 / no-lowpass-dct / refine-analysis-type=0 / copy-pic=1 / max-ausize-factor=1.0 / no-dynamic-refine / no-single-sei / no-hevc-aq / no-svt / no-field / qp-adaptation-range=1.00
Default                     : Yes
Forced                      : No
Color range                 : Limited
Color primaries             : BT.709
Transfer characteristics    : BT.709
Matrix coefficients         : BT.709
Duration_Source             : General_Duration

Audio
ID                          : 2
Format                      : AC-3
Format/Info                 : Audio Coding 3
Commercial name             : Dolby Digital
Codec ID                    : A_AC3
Duration                    : 2 h 12 min
Bit rate mode               : Constant
Bit rate                    : 448 kb/s
Channel(s)                  : 6 channels
Channel layout              : L R C LFE Ls Rs
Sampling rate               : 48.0 kHz
Frame rate                  : 31.250 FPS (1536 SPF)
Compression mode            : Lossy
Delay relative to video     : -5 ms
Stream size                 : 425 MiB (17%)
Title                       : iTA AC3 5.1
Language                    : Italian
Service kind                : Complete Main
Default                     : Yes
Forced                      : No

Text #1
ID                          : 3
Format                      : PGS
Codec ID                    : S_HDMV/PGS
Codec ID/Info               : Picture based subtitle format used on BDs/HD-DVDs
Duration                    : 2 h 5 min
Title                       : iTA NON UDENTI - PGS
Language                    : Italian
Default                     : No
Forced                      : No

Text #2
ID                          : 4
Format                      : PGS
Codec ID                    : S_HDMV/PGS
Codec ID/Info               : Picture based subtitle format used on BDs/HD-DVDs
Duration                    : 2 h 6 min
Title                       : ENG REGULAR - PGS
Language                    : English
Default                     : No
Forced                      : No

Menu
00:00:00.000                : :Capitolo 01
00:12:17.080                : :Capitolo 02
00:22:38.560                : :Capitolo 03
00:33:21.600                : :Capitolo 04
00:43:33.880                : :Capitolo 05
00:55:52.880                : :Capitolo 06
01:05:31.760                : :Capitolo 07
01:17:46.840                : :Capitolo 08
01:29:10.240                : :Capitolo 09
01:39:16.760                : :Capitolo 10
01:50:42.080                : :Capitolo 11
02:05:59.560                : :Capitolo 12
Info: Per scaricare devi usare un client come uTorrent o Transmission
AnnounceURL
udp://tracker.torrent.eu.org:451/announce
Hash da89adcadc26d6f63d140cf9f028062d6bc949fe
Peers seeds: 192 , leech: 19
Size 2.40 GB
Completato 3934x
Aggiunto 31.12.21 - 10:12:33
Uploader   jeddak1
Votazione (Voti: 0)


Condividi questo bittorrent:


html/blog:


bbcode/forum:




Aggiungi Commento