* Dettagli Torrent   globale  | Commenti (0) 


- [1986] Gioco mortale - The Manhattan Project [1080p.x265.Ita.MP3.2.0-Eng.Ac3.2.0] (by.phadron) MIRCr -


Download via torrent:
Categoria bittorrent BDRip
Descrizione





NB: audio mono Ita originale, audio stereo Ita creato dal mono con hxxps://nugenaudio.com/stereoizer

Screen: QUI
Info: QUI

Unique ID                                : 37049294442048034804934570050448183435 (0x1BDF6F3F38BEC6F19D7C9DF9E9FED08B)
Complete name                            :[1986] Gioco mortale - The Manhattan Project [1080p.x265.Ita.MP3.2.0-Eng.Ac3.2.0] (by.phadron) MIRCrew.mkv
Format                                   : Matroska
Format version                           : Version 4
File size                                : 2.60 GiB
Duration                                 : 1 h 58 min
Overall bit rate                         : 3 150 kb/s
Encoded date                             : UTC 2021-11-23 17:20:44
Writing application                      : mkvmerge v61.0.0 ('So&#39 64-bit
Writing library                          : libebml v1.4.2 + libmatroska v1.6.4
Cover                                    : Yes
Attachments                              : manhattan-project_cover.jpg

Video
ID                                       : 1
Format                                   : HEVC
Format/Info                              : High Efficiency Video Coding
Format profile                           : [email protected]@High
Codec ID                                 : V_MPEGH/ISO/HEVC
Duration                                 : 1 h 58 min
Bit rate                                 : 2 566 kb/s
Width                                    : 1 920 pixels
Height                                   : 1 080 pixels
Display aspect ratio                     : 16:9
Frame rate mode                          : Constant
Frame rate                               : 29.970 (30000/1001) FPS
Color space                              : YUV
Chroma subsampling                       : 4:2:0
Bit depth                                : 8 bits
Bits/(Pixel*Frame)                       : 0.041
Stream size                              : 2.12 GiB (81%)
Language                                 : English
Default                                  : Yes
Forced                                   : No

Audio #1
ID                                       : 2
Format                                   : MPEG Audio
Format version                           : Version 1
Format profile                           : Layer 3
Format settings                          : Joint stereo
Codec ID                                 : A_MPEG/L3
Codec ID/Hint                            : MP3
Duration                                 : 1 h 58 min
Bit rate mode                            : Constant
Bit rate                                 : 256 kb/s
Channel(s)                               : 2 channels
Sampling rate                            : 48.0 kHz
Frame rate                               : 41.667 FPS (1152 SPF)
Compression mode                         : Lossy
Stream size                              : 216 MiB (8%)
Title                                    : Ita Stereo
Language                                 : Italian
Default                                  : Yes
Forced                                   : No

Audio #2
ID                                       : 3
Format                                   : AC-3
Format/Info                              : Audio Coding 3
Commercial name                          : Dolby Digital
Codec ID                                 : A_AC3
Duration                                 : 1 h 58 min
Bit rate mode                            : Constant
Bit rate                                 : 192 kb/s
Channel(s)                               : 1 channel
Channel layout                           : C
Sampling rate                            : 48.0 kHz
Frame rate                               : 31.250 FPS (1536 SPF)
Compression mode                         : Lossy
Delay relative to video                  : 27 ms
Stream size                              : 162 MiB (6%)
Title                                    : Ita mono
Language                                 : Italian
Service kind                             : Complete Main
Default                                  : No
Forced                                   : No

Audio #3
ID                                       : 4
Format                                   : AC-3
Format/Info                              : Audio Coding 3
Commercial name                          : Dolby Digital
Codec ID                                 : A_AC3
Duration                                 : 1 h 58 min
Bit rate mode                            : Constant
Bit rate                                 : 128 kb/s
Channel(s)                               : 2 channels
Channel layout                           : L R
Sampling rate                            : 48.0 kHz
Frame rate                               : 31.250 FPS (1536 SPF)
Compression mode                         : Lossy
Stream size                              : 108 MiB (4%)
Language                                 : English
Service kind                             : Complete Main
Default                                  : Yes
Forced                                   : No

Text #1
ID                                       : 5
Format                                   : UTF-8
Codec ID                                 : S_TEXT/UTF8
Codec ID/Info                            : UTF-8 Plain Text
Duration                                 : 1 h 13 min
Bit rate                                 : 4 b/s
Count of elements                        : 68
Stream size                              : 2.41 KiB (0%)
Language                                 : Italian
Default                                  : No
Forced                                   : No

Text #2
ID                                       : 6
Format                                   : VobSub
Muxing mode                              : zlib
Codec ID                                 : S_VOBSUB
Codec ID/Info                            : Picture based subtitle format used on DVDs
Duration                                 : 1 h 53 min
Bit rate                                 : 7 975 b/s
Count of elements                        : 1144
Stream size                              : 6.47 MiB (0%)
Language                                 : English
Default                                  : No
Forced                                   : No
Info: Per scaricare devi usare un client come uTorrent o Transmission
AnnounceURL
udp://tracker.opentrackr.org:1337/announce
Hash e27a0423cddf294a0754a97b5b6efd880354e3ee
Peers seeds: 27 , leech: 4
Size 2.60 GB
Completato 556x
Aggiunto 23.11.21 - 20:11:04
Uploader   phadron
Votazione (Voti: 0)


Condividi questo bittorrent:


html/blog:


bbcode/forum:




Aggiungi Commento