* Dettagli Torrent   globale  | Commenti (0) 


- Arsenal (2017) 1080p h264 Ac3 5.1 Ita Eng Sub Ita-MIRCrew -


Download via torrent:
Categoria bittorrent BDRip
Descrizione
Arsenal (2017) 1080p h264 Ac3 5.1 Ita Eng Sub Ita-MIRCrew



NO FOUND ONLY ORIGINAL RELEASE


My release is always in double track audio italian and Original audio
for select it use VLC or dvd player home
not use wmp

Arsenal (2017)

Quality MIRCrew on HD 1080p da 2,1 gb








 

Genere: Thriller
Anno: 2017
Regia: Steven C. Miller
Paese: USA
Sceneggiatura: Jason Mosberg
Fotografia: Brandon Cox



Nicolas Cage, John Cusack, Johnathon Schaech, Adrian Grenier



Nell'estate del 1974 nelle vicinanze della località di Puerto (sita in prossimità del nefasto Triangolo delle Bermude) si scatena una terribile tempesta. Nonostante le precauzioni del caso, messe in atto dalle autorità locali, i dispersi risultano essere comunque numerosi. Tra questi alcuni passeggeri di un aereo di linea decollato con 42 persone a bordo e precipitato in mare



A powerful action thriller, ARSENAL tells the intertwining stories of the Lindel brothers, Mikey (Johnathon Schaech) and JP (Adrian Grenier), who had only each other to rely on growing up

 














General

Complete name                            : Arsenal (2017) 1080p h264 Ac3 5.1 Ita Eng Sub Ita-MIRCrew.mkv
Format                                   : Matroska
Format version                           : Version 2
File size                                : 2.12 GiB
Duration                                 : 1h 37mn
Overall bit rate                         : 3 117 Kbps
Movie name                               : MIRCrew
Encoded date                             : UTC 2021-11-20 18:08:37
Writing application                      : Lavf54.63.100
Writing library                          : Lavf54.63.100
COMMENT                                  : MIRCrew

Video
ID                                       : 1
Format                                   : AVC
Format/Info                              : Advanced Video Codec
Format profile                           : [email protected]
Format settings, CABAC                   : Yes
Format settings, ReFrames                : 2 frames
Codec ID                                 : V_MPEG4/ISO/AVC
Duration                                 : 1h 37mn
Bit rate                                 : 2 159 Kbps
Nominal bit rate                         : 2 300 Kbps
Width                                    : 1 920 pixels
Height                                   : 800 pixels
Display aspect ratio                     : 2.40:1
Frame rate mode                          : Variable
Frame rate                               : 23.976 fps
Color space                              : YUV
Chroma subsampling                       : 4:2:0
Bit depth                                : 8 bits
Scan type                                : Progressive
Bits/(Pixel*Frame)                       : 0.059
Stream size                              : 1.47 GiB (69%)
Writing library                          : x264 core 130 r2273
Encoding settings                        : cabac=1 / ref=2 / deblock=1:0:0
Language                                 : Italian
Default                                  : Yes
Forced                                   : No
DURATION                                 : 01:37:25.965000000

Audio #1
ID                                       : 2
Format                                   : AC-3
Format/Info                              : Audio Coding 3
Mode extension                           : CM (complete main)
Codec ID                                 : A_AC3
Duration                                 : 1h 37mn
Bit rate mode                            : Constant
Bit rate                                 : 448 Kbps
Channel(s)                               : 6 channels
Channel positions                        : Front: L C R, Side: L R, LFE
Sampling rate                            : 48.0 KHz
Bit depth                                : 16 bits
Compression mode                         : Lossy
Delay relative to video                  : 1mn 5s
Stream size                              : 312 MiB (14%)
Title                                    : Ita. AC3 640 Kbps
Language                                 : Italian
Default                                  : No
Forced                                   : No
DURATION                                 : 01:37:25.984000000


Audio #2
ID                                       : 3
Format                                   : AC-3
Format/Info                              : Audio Coding 3
Mode extension                           : CM (complete main)
Codec ID                                 : A_AC3
Duration                                 : 1h 37mn
Bit rate mode                            : Constant
Bit rate                                 : 448 Kbps
Channel(s)                               : 6 channels
Channel positions                        : Front: L C R, Side: L R, LFE
Sampling rate                            : 48.0 KHz
Bit depth                                : 16 bits
Compression mode                         : Lossy
Delay relative to video                  : 1mn 5s
Stream size                              : 312 MiB (14%)
Title                                    : Eng. DTS 1510 Kbps
Language                                 : English
Default                                  : No
Forced                                   : No
DURATION                                 : 01:37:26.070000000


Text
ID                                       : 4
Format                                   : UTF-8
Codec ID                                 : S_TEXT/UTF8
Codec ID/Info                            : UTF-8 Plain Text
Title                                    : Sub. Ita.
Language                                 : Italian
Default                                  : No
Forced                                   : No
DURATION                                 : 01:30:45.857000000


Menu
00:00:00.000                             : :00:00:00.000
00:05:29.663                             : :00:05:29.663
00:11:17.802                             : :00:11:17.802
00:15:27.468                             : :00:15:27.468
00:20:11.210                             : :00:20:11.210
00:24:27.508                             : :00:24:27.508
00:33:59.996                             : :00:33:59.996
00:40:53.117                             : :00:40:53.117
00:45:42.198                             : :00:45:42.198
00:51:31.797                             : :00:51:31.797
00:59:20.891                             : :00:59:20.891
01:08:12.672                             : :01:08:12.672
01:12:54.120                             : :01:12:54.120
01:20:24.528                             : :01:20:24.528
01:25:50.437                             : :01:25:50.437
01:31:53.133                             : :01:31:53.133





Info: Per scaricare devi usare un client come uTorrent o Transmission
AnnounceURL
udp://tracker.torrent.eu.org:451/announce
Hash cdc26fff8f5af9b1fb3b177ad7ef2f37a0e63db1
Peers seeds: 40 , leech: 2
Size 2.12 GB
Completato 17x
Aggiunto 21.11.21 - 18:11:36
Uploader   robbyrs
Votazione (Voti: 0)


Condividi questo bittorrent:


html/blog:


bbcode/forum:




Aggiungi Commento