* Dettagli Torrent   globale  | Commenti (0) 


- Il.Violinista.Sul.Tetto.1971.iTA.ENG.AC3.SUB.iTA.ENG.BluRay.HEVC.1080p.x265.jeddak-MIRCrew -


Download via torrent:
Categoria bittorrent BDRip
Descrizione





Il Violinista Sul Tetto


Titolo originale: Fiddler On The Roof
Genere: Commedia, Musicale
Anno: 1971
Regia: Norman Jewison
Attori: Topol, Norma Crane, Leonard Frey, Molly Picon, Paul Mann, Rosalind Harris, Michele Marsh, Neva Small, Paul Michael Glaser, Ray Lovelock, Elaine Edwards, Candy Bonstein, Shimen Ruskin, Zvee Scooler, Louis Zorich, Brian Coburn, George Little, Alfie Scopp, Ruth Madoc, Tutte Lemkow, Stella Courtney, Jacob Kalich, Barry Dennen, Patience Collier, Vernon Dobtcheff, Howard Goorney
Paese: USA
Durata: 181 min
Distribuzione: UA EUROPA (1972) - MGM HOME ENTERTAINMENT (2000)
Sceneggiatura: Joseph Stein
Fotografia: Oswald Morris
Montaggio: Robert Lawrence, Antony Gibbs
Musiche: John Williams, Jerry Bock
Produzione: KIRISCH



Inizi del secolo. Nel villaggio ucraino di Anatevka vive una piccola e povera comunità ebraica, pacificamente tollerata dalla maggioranza cristiana degli abitanti. Un uomo e sua moglie sognano, per le loro figliole, dei buoni partiti; ma queste infine sposano uomini che non soddisfano nè le aspettative del genitore, nè le tradizioni della comunità. L'uomo e la sua famiglia - perseguitati perchè sono ebrei - vengono costretti a emigrare in America.




















General
Unique ID                   : 185583292983330557533592692885293150818 (0x8B9E0AC7F2975F96A67160524020B262)
Complete name               : Il.Violinista.Sul.Tetto.1971.iTA.ENG.AC3.SUB.iTA.ENG.BluRay.HEVC.1080p.x265.jeddak-MIRCrew.mkv
Format                      : Matroska
Format version              : Version 2
File size                   : 3.75 GiB
Duration                    : 3 h 1 min
Overall bit rate            : 2 964 kb/s
Movie name                  : Il.Violinista.Sul.Tetto.1971.iTA.ENG.AC3.SUB.iTA.ENG.BluRay.1080p.x264.jeddak-MIRCrew
Encoded date                : UTC 2021-11-21 09:37:24
Writing application         : mkvmerge v5.6.0 ( 'Kenya Kane' ) built on May 27 2012 16:44:04
Writing library             : libebml v1.2.3 + libmatroska v1.3.0 / Lavf58.29.100

Video
ID                          : 1
Format                      : HEVC
Format/Info                 : High Efficiency Video Coding
Format profile              : [email protected]@Main
Codec ID                    : V_MPEGH/ISO/HEVC
Duration                    : 3 h 1 min
Bit rate                    : 2 009 kb/s
Width                       : 1 920 pixels
Height                      : 820 pixels
Display aspect ratio        : 2.35:1
Frame rate mode             : Constant
Frame rate                  : 23.976 (24000/1001) FPS
Color space                 : YUV
Chroma subsampling          : 4:2:0
Bit depth                   : 8 bits
Bits/(Pixel*Frame)          : 0.053
Stream size                 : 2.54 GiB (68%)
Title                       : ...::: jeddak MIRCrew :::...
Writing library             : x265 3.2.1+1-b5c86a64bbbe:[Linux][GCC 9.2.0][64 bit] 8bit+10bit+12bit
Encoding settings           : cpuid=1111039 / frame-threads=5 / wpp / no-pmode / no-pme / no-psnr / no-ssim / log-level=2 / input-csp=1 / input-res=1920x820 / interlace=0 / total-frames=0 / level-idc=40 / high-tier=1 / uhd-bd=0 / ref=3 / no-allow-non-conformance / no-repeat-headers / annexb / no-aud / no-hrd / info / hash=0 / no-temporal-layers / open-gop / min-keyint=24 / keyint=240 / gop-lookahead=0 / bframes=4 / b-adapt=2 / b-pyramid / bframe-bias=0 / rc-lookahead=20 / lookahead-slices=5 / scenecut=40 / radl=0 / no-splice / no-intra-refresh / ctu=64 / min-cu-size=8 / no-rect / no-amp / max-tu-size=32 / tu-inter-depth=1 / tu-intra-depth=1 / limit-tu=0 / rdoq-level=0 / dynamic-rd=0.00 / no-ssim-rd / signhide / no-tskip / nr-intra=0 / nr-inter=0 / no-constrained-intra / strong-intra-smoothing / max-merge=3 / limit-refs=1 / no-limit-modes / me=1 / subme=2 / merange=57 / temporal-mvp / no-hme / weightp / no-weightb / no-analyze-src-pics / deblock=0:0 / sao / no-sao-non-deblock / rd=3 / selective-sao=4 / early-skip / rskip / no-fast-intra / no-tskip-fast / no-cu-lossless / b-intra / no-splitrd-skip / rdpenalty=0 / psy-rd=2.00 / psy-rdoq=0.00 / no-rd-refine / no-lossless / cbqpoffs=0 / crqpoffs=0 / rc=abr / bitrate=2000 / qcomp=0.60 / qpstep=4 / stats-write=0 / stats-read=0 / ipratio=1.40 / pbratio=1.30 / aq-mode=2 / aq-strength=1.00 / cutree / zone-count=0 / no-strict-cbr / qg-size=32 / no-rc-grain / qpmax=69 / qpmin=0 / no-const-vbv / sar=1 / overscan=0 / videoformat=5 / range=0 / colorprim=1 / transfer=1 / colormatrix=1 / chromaloc=0 / display-window=0 / cll=0,0 / min-luma=0 / max-luma=255 / log2-max-poc-lsb=8 / vui-timing-info / vui-hrd-info / slices=1 / no-opt-qp-pps / no-opt-ref-list-length-pps / no-multi-pass-opt-rps / scenecut-bias=0.05 / no-opt-cu-delta-qp / no-aq-motion / no-hdr / no-hdr-opt / no-dhdr10-opt / no-idr-recovery-sei / analysis-reuse-level=5 / scale-factor=0 / refine-intra=0 / refine-inter=0 / refine-mv=1 / refine-ctu-distortion=0 / no-limit-sao / ctu-info=0 / no-lowpass-dct / refine-analysis-type=0 / copy-pic=1 / max-ausize-factor=1.0 / no-dynamic-refine / no-single-sei / no-hevc-aq / no-svt / no-field / qp-adaptation-range=1.00
Default                     : Yes
Forced                      : No
Color range                 : Limited
Color primaries             : BT.709
Transfer characteristics    : BT.709
Matrix coefficients         : BT.709
Duration_Source             : General_Duration

Audio #1
ID                          : 2
Format                      : AC-3
Format/Info                 : Audio Coding 3
Commercial name             : Dolby Digital
Codec ID                    : A_AC3
Duration                    : 3 h 1 min
Bit rate mode               : Constant
Bit rate                    : 448 kb/s
Channel(s)                  : 6 channels
Channel layout              : L R C LFE Ls Rs
Sampling rate               : 48.0 kHz
Frame rate                  : 31.250 FPS (1536 SPF)
Compression mode            : Lossy
Delay relative to video     : -5 ms
Stream size                 : 580 MiB (15%)
Title                       : iTA AC3 5.1
Language                    : Italian
Service kind                : Complete Main
Default                     : Yes
Forced                      : No

Audio #2
ID                          : 3
Format                      : AC-3
Format/Info                 : Audio Coding 3
Commercial name             : Dolby Digital
Codec ID                    : A_AC3
Duration                    : 3 h 1 min
Bit rate mode               : Constant
Bit rate                    : 448 kb/s
Channel(s)                  : 6 channels
Channel layout              : L R C LFE Ls Rs
Sampling rate               : 48.0 kHz
Frame rate                  : 31.250 FPS (1536 SPF)
Compression mode            : Lossy
Delay relative to video     : -5 ms
Stream size                 : 580 MiB (15%)
Title                       : ENG AC3 5.1
Language                    : English
Service kind                : Complete Main
Default                     : No
Forced                      : No

Text #1
ID                          : 4
Format                      : UTF-8
Codec ID                    : S_TEXT/UTF8
Codec ID/Info               : UTF-8 Plain Text
Title                       : iTA FORCED - SRT
Language                    : Italian
Default                     : Yes
Forced                      : Yes

Text #2
ID                          : 5
Format                      : PGS
Codec ID                    : S_HDMV/PGS
Codec ID/Info               : Picture based subtitle format used on BDs/HD-DVDs
Duration                    : 3 h 1 min
Title                       : iTA REGULAR - PGS
Language                    : Italian
Default                     : No
Forced                      : No

Text #3
ID                          : 6
Format                      : PGS
Codec ID                    : S_HDMV/PGS
Codec ID/Info               : Picture based subtitle format used on BDs/HD-DVDs
Duration                    : 2 h 58 min
Title                       : ENG NON UDENTI - PGS
Language                    : English
Default                     : No
Forced                      : No

Menu
00:00:00.000                : :Capitolo 01
00:09:42.624                : :Capitolo 02
00:13:15.837                : :Capitolo 03
00:17:55.032                : :Capitolo 04
00:24:19.625                : :Capitolo 05
00:29:53.250                : :Capitolo 06
00:35:44.809                : :Capitolo 07
00:39:03.633                : :Capitolo 08
00:42:39.390                : :Capitolo 09
00:49:08.696                : :Capitolo 10
00:55:59.606                : :Capitolo 11
01:01:07.289                : :Capitolo 12
01:10:59.881                : :Capitolo 13
01:15:16.762                : :Capitolo 14
01:17:26.433                : :Capitolo 15
01:21:17.915                : :Capitolo 16
01:30:22.792                : :Capitolo 17
01:32:16.448                : :Capitolo 18
01:36:05.260                : :Capitolo 19
01:41:39.594                : :Capitolo 20
01:44:24.216                : :Capitolo 21
01:47:37.451                : :Capitolo 22
01:51:32.019                : :Capitolo 23
01:53:20.377                : :Capitolo 24
01:55:53.780                : :Capitolo 25
02:04:08.816                : :Capitolo 26
02:09:06.239                : :Capitolo 27
02:13:57.321                : :Capitolo 28
02:19:12.177                : :Capitolo 29
02:22:17.612                : :Capitolo 30
02:30:32.857                : :Capitolo 31
02:35:35.243                : :Capitolo 32
02:40:19.652                : :Capitolo 33
02:44:22.227                : :Capitolo 34
02:50:47.612                : :Capitolo 35
02:58:47.717                : :Capitolo 36
Info: Per scaricare devi usare un client come uTorrent o Transmission
AnnounceURL
udp://tracker.torrent.eu.org:451/announce
Hash 61de2d814170393d4e9db39f1c2bc51019d20260
Peers seeds: 20 , leech: 1
Size 3.75 GB
Completato 8x
Aggiunto 21.11.21 - 12:11:15
Uploader   jeddak1
Votazione (Voti: 0)


Condividi questo bittorrent:


html/blog:


bbcode/forum:




Aggiungi Commento