* Dettagli Torrent   globale  | Commenti (0) 


- Finch (2021) 1080p h264 Ac3 5.1 Ita Eng Sub Ita Eng-MIRCrew -


Download via torrent:
Categoria bittorrent BDRip
Descrizione
Finch (2021) 1080p h264 Ac3 5.1 Ita Eng Sub Ita Eng-MIRCrew





NO FOUND ONLY ORIGINAL RELEASE

My release is always in double track audio italian and Original audio
for select it use VLC or dvd player home
not use wmp


Finch (2021)

Quality MIRCrew in HD 1080p da 2,3 gb










Regista: John Lee Hancock
Genere: Drammatico, Thriller
Anno: 2021
Paese: USA
Durata: 128 min
Data di uscita: 06 maggio 2021
Sceneggiatura: John Lee Hancock
Fotografia: John Schwartzman
Montaggio: Robert Frazen
Musiche: Thomas Newman



Denzel Washington, Rami Malek, Jared Leto, Sofia Vassilieva, Natalie Morales, Tom Hughes, Chris Bauer, Terry Kinney, Jason James Richter, Stephanie Erb, Michael Hyatt, Adam Harrington, Kerry O'Malley, Isabel Arraiza, Joris Jarsky



Su una Terra dopo l'apocalisse, un robot, costruito per proteggere la vita dell'amato cane del suo creatore, impara a conoscere la vita, l'amore, l'amicizia e cosa significa essere umani.



On a post-apocalyptic earth, a robot, built to protect the life of his creator's beloved dog, learns about life, love, friendship and what it means to be human.














[spoiler]
General
E)
Complete name                            : Finch (2021) 1080p h264 Ac3 5.1 Ita Eng Sub Ita Eng-MIRCrew.mkv
Format                                   : Matroska
Format version                           : Version 2
File size                                : 2.27 GiB
Duration                                 : 1h 55mn
Overall bit rate                         : 2 805 Kbps
Movie name                               : MIRCrew
Encoded date                             : UTC 2021-11-05 10:24:04
Writing application                      : Lavf54.63.100
Writing library                          : Lavf54.63.100
COMMENT                                  : MIRCrew

Video
ID                                       : 1
Format                                   : AVC
Format/Info                              : Advanced Video Codec
Format profile                           : [email protected]
Format settings, CABAC                   : Yes
Format settings, ReFrames                : 2 frames
Codec ID                                 : V_MPEG4/ISO/AVC
Duration                                 : 1h 55mn
Bit rate                                 : 1 900 Kbps
Width                                    : 1 920 pixels
Height                                   : 800 pixels
Display aspect ratio                     : 2.40:1
Frame rate mode                          : Variable
Frame rate                               : 23.976 fps
Color space                              : YUV
Chroma subsampling                       : 4:2:0
Bit depth                                : 8 bits
Scan type                                : Progressive
Bits/(Pixel*Frame)                       : 0.052
Stream size                              : 1.50 GiB (66%)
Writing library                          : x264 core 130 r2273
Encoding settings                        : cabac=1 / ref=2 / deblock=1:0:0
Language                                 : Italian
Default                                  : Yes
Forced                                   : No
DURATION                                 : 01:55:39.641000000


Audio #1
ID                                       : 2
Format                                   : AC-3
Format/Info                              : Audio Coding 3
Mode extension                           : CM (complete main)
Codec ID                                 : A_AC3
Duration                                 : 1h 55mn
Bit rate mode                            : Constant
Bit rate                                 : 448 Kbps
Channel(s)                               : 6 channels
Channel positions                        : Front: L C R, Side: L R, LFE
Sampling rate                            : 48.0 KHz
Bit depth                                : 16 bits
Compression mode                         : Lossy
Delay relative to video                  : 5 ms
Stream size                              : 371 MiB (16%)
Language                                 : Italian
Default                                  : No
Forced                                   : No
DURATION                                 : 01:55:39.680000000


Audio #2
ID                                       : 3
Format                                   : AC-3
Format/Info                              : Audio Coding 3
Mode extension                           : CM (complete main)
Codec ID                                 : A_AC3
Duration                                 : 1h 55mn
Bit rate mode                            : Constant
Bit rate                                 : 448 Kbps
Channel(s)                               : 6 channels
Channel positions                        : Front: L C R, Side: L R, LFE
Sampling rate                            : 48.0 KHz
Bit depth                                : 16 bits
Compression mode                         : Lossy
Delay relative to video                  : 5 ms
Stream size                              : 371 MiB (16%)
Language                                 : English
Default                                  : No
Forced                                   : No
DURATION                                 : 01:55:39.648000000


[/spoiler]





Info: Per scaricare devi usare un client come uTorrent o Transmission
AnnounceURL
udp://tracker.torrent.eu.org:451/announce
Hash 57e03bd573853f42c7c8d6254b380df60d5673f2
Peers seeds: 122 , leech: 9
Size 2.27 GB
Completato 83x
Aggiunto 20.11.21 - 18:11:48
Uploader   robbyrs
Votazione (Voti: 0)


Condividi questo bittorrent:


html/blog:


bbcode/forum:




Aggiungi Commento