* Dettagli Torrent   globale  | Commenti (0) 


- Il.Maratoneta.1976.iTA.ENG.AC3.SUB.iTA.ENG.BluRay.1080p.x264.jeddak-MIRCrew -


Download via torrent:
Categoria bittorrent BDRip
Descrizione





Il Maratoneta


Titolo originale: Marathon Man
Genere: Giallo
Anno: 1976
Regia: John Schlesinger
Attori: Dustin Hoffman, Laurence Olivier, Roy Scheider, William Devane, Marthe Keller, Fritz Weaver, Richard Bright, Marc Lawrence, Jacques Marin, Allen Joseph, Nicole Deslauriers, James Wing Woo, Ben Dova, Lou Gilbert, Tito Goya, Harry Goz, Lee Steele, Fred Stuthman, Micahel Vale, Lionel Pian, Scott Price, Jeff Palladini, William Martel, Wilfredo Hernández, Jaime Tirelli, Lotta Andor-Palfi
Paese: USA
Durata: 125 min
Distribuzione: Cinema International Corporation,
Sceneggiatura: Robert Towne, William Goldman
Fotografia: Conrad L. Hall
Montaggio: Jim Clark
Musiche: Michael Small
Produzione: GELDERSE MAATSCHAPPIJ N.V., PARAMOUNT PICTURES



Il giovane ebreo newyorkese Thomas Babe Levy, studente universitario, divide le sue giornate studiando e allenandosi alla corsa di fondo nel Central Park , amoreggiando con Elsa, una collega svizzera incontrata all'università. La sua vita scorre tranquilla fino al giorno in cui suo fratello Doc, venuto a fargli visita, gli muore fra le braccia ucciso da un organizzazione malavitosa.




















General
Unique ID                   : 229686565160998146567212967813432063350 (0xACCC05FB5C335A3CB009C067AFF1B576)
Complete name               : Il.Maratoneta.1976.iTA.ENG.AC3.SUB.iTA.ENG.BluRay.1080p.x264.jeddak-MIRCrew.mkv
Format                      : Matroska
Format version              : Version 2
File size                   : 2.83 GiB
Duration                    : 2 h 5 min
Overall bit rate            : 3 234 kb/s
Movie name                  : Il.Maratoneta.1976.iTA.ENG.AC3.SUB.iTA.ENG.BluRay.1080p.x264.jeddak-MIRCrew
Encoded date                : UTC 2021-11-20 08:29:48
Writing application         : mkvmerge v5.6.0 ( 'Kenya Kane' ) built on May 27 2012 16:44:04
Writing library             : libebml v1.2.3 + libmatroska v1.3.0 / Lavf58.29.100

Video
ID                          : 1
Format                      : AVC
Format/Info                 : Advanced Video Codec
Format profile              : [email protected]
Format settings             : CABAC / 4 Ref Frames
Format settings, CABAC      : Yes
Format settings, Reference  : 4 frames
Codec ID                    : V_MPEG4/ISO/AVC
Duration                    : 2 h 5 min
Bit rate                    : 2 500 kb/s
Width                       : 1 920 pixels
Height                      : 1 080 pixels
Display aspect ratio        : 16:9
Frame rate mode             : Constant
Frame rate                  : 23.976 (24000/1001) FPS
Color space                 : YUV
Chroma subsampling          : 4:2:0
Bit depth                   : 8 bits
Scan type                   : Progressive
Bits/(Pixel*Frame)          : 0.050
Stream size                 : 2.19 GiB (77%)
Title                       : ...::: jeddak MIRCrew :::...
Writing library             : x264 core 148
Encoding settings           : cabac=1 / ref=3 / deblock=1:-1:-1 / analyse=0x3:0x113 / me=hex / subme=7 / psy=1 / psy_rd=1.00:0.15 / mixed_ref=1 / me_range=16 / chroma_me=1 / trellis=1 / 8x8dct=1 / cqm=0 / deadzone=21,11 / fast_pskip=1 / chroma_qp_offset=-3 / threads=6 / lookahead_threads=1 / sliced_threads=0 / nr=0 / decimate=1 / interlaced=0 / bluray_compat=0 / constrained_intra=0 / bframes=3 / b_pyramid=2 / b_adapt=1 / b_bias=0 / direct=1 / weightb=1 / open_gop=0 / weightp=2 / keyint=240 / keyint_min=24 / scenecut=40 / intra_refresh=0 / rc_lookahead=40 / rc=abr / mbtree=1 / bitrate=2500 / ratetol=1.0 / qcomp=0.60 / qpmin=0 / qpmax=69 / qpstep=4 / vbv_maxrate=62500 / vbv_bufsize=78125 / nal_hrd=none / filler=0 / ip_ratio=1.40 / aq=1:1.00
Default                     : Yes
Forced                      : No
Color range                 : Limited
Color primaries             : BT.709
Transfer characteristics    : BT.709
Matrix coefficients         : BT.709

Audio #1
ID                          : 2
Format                      : AC-3
Format/Info                 : Audio Coding 3
Commercial name             : Dolby Digital
Codec ID                    : A_AC3
Duration                    : 2 h 5 min
Bit rate mode               : Constant
Bit rate                    : 224 kb/s
Channel(s)                  : 2 channels
Channel layout              : L R
Sampling rate               : 48.0 kHz
Frame rate                  : 31.250 FPS (1536 SPF)
Compression mode            : Lossy
Delay relative to video     : -5 ms
Stream size                 : 201 MiB (7%)
Title                       : iTA AC3 2.0
Language                    : Italian
Service kind                : Complete Main
Default                     : Yes
Forced                      : No

Audio #2
ID                          : 3
Format                      : AC-3
Format/Info                 : Audio Coding 3
Commercial name             : Dolby Digital
Codec ID                    : A_AC3
Duration                    : 2 h 5 min
Bit rate mode               : Constant
Bit rate                    : 448 kb/s
Channel(s)                  : 6 channels
Channel layout              : L R C LFE Ls Rs
Sampling rate               : 48.0 kHz
Frame rate                  : 31.250 FPS (1536 SPF)
Compression mode            : Lossy
Delay relative to video     : -5 ms
Stream size                 : 402 MiB (14%)
Title                       : ENG AC3 5.1
Language                    : English
Service kind                : Complete Main
Default                     : No
Forced                      : No

Text #1
ID                          : 4
Format                      : UTF-8
Codec ID                    : S_TEXT/UTF8
Codec ID/Info               : UTF-8 Plain Text
Title                       : iTA FORCED - SRT
Language                    : Italian
Default                     : Yes
Forced                      : Yes

Text #2
ID                          : 5
Format                      : PGS
Codec ID                    : S_HDMV/PGS
Codec ID/Info               : Picture based subtitle format used on BDs/HD-DVDs
Duration                    : 2 h 5 min
Title                       : iTA REGULAR - PGS
Language                    : Italian
Default                     : No
Forced                      : No

Text #3
ID                          : 6
Format                      : PGS
Codec ID                    : S_HDMV/PGS
Codec ID/Info               : Picture based subtitle format used on BDs/HD-DVDs
Duration                    : 2 h 0 min
Title                       : ENG NON UDENTI - PGS
Language                    : English
Default                     : No
Forced                      : No

Menu
00:00:00.000                : :Capitolo 01
00:01:12.823                : :Capitolo 02
00:03:24.955                : :Capitolo 03
00:06:26.428                : :Capitolo 04
00:08:38.810                : :Capitolo 05
00:10:44.477                : :Capitolo 06
00:12:10.188                : :Capitolo 07
00:14:27.867                : :Capitolo 08
00:17:26.796                : :Capitolo 09
00:18:23.561                : :Capitolo 10
00:20:27.810                : :Capitolo 11
00:23:08.137                : :Capitolo 12
00:24:39.353                : :Capitolo 13
00:26:30.380                : :Capitolo 14
00:28:43.889                : :Capitolo 15
00:31:42.901                : :Capitolo 16
00:33:24.044                : :Capitolo 17
00:35:09.107                : :Capitolo 18
00:37:36.129                : :Capitolo 19
00:40:37.560                : :Capitolo 20
00:41:23.481                : :Capitolo 21
00:42:52.987                : :Capitolo 22
00:44:01.180                : :Capitolo 23
00:45:02.158                : :Capitolo 24
00:46:52.143                : :Capitolo 25
00:52:27.936                : :Capitolo 26
00:55:53.100                : :Capitolo 27
00:59:19.639                : :Capitolo 28
01:00:52.357                : :Capitolo 29
01:01:48.914                : :Capitolo 30
01:07:05.271                : :Capitolo 31
01:08:57.800                : :Capitolo 32
01:11:40.838                : :Capitolo 33
01:16:02.850                : :Capitolo 34
01:20:18.188                : :Capitolo 35
01:23:40.557                : :Capitolo 36
01:24:51.587                : :Capitolo 37
01:29:33.326                : :Capitolo 38
01:31:16.221                : :Capitolo 39
01:33:53.795                : :Capitolo 40
01:34:57.066                : :Capitolo 41
01:39:06.315                : :Capitolo 42
01:42:43.157                : :Capitolo 43
01:45:12.848                : :Capitolo 44
01:48:30.462                : :Capitolo 45
01:51:27.472                : :Capitolo 46
01:53:30.304                : :Capitolo 47
01:54:42.000                : :Capitolo 48
01:56:37.532                : :Capitolo 49
02:02:34.556                : :Capitolo 50
Info: Per scaricare devi usare un client come uTorrent o Transmission
AnnounceURL
udp://tracker.torrent.eu.org:451/announce
Hash dd740935ce39570ea0325dbef83604960b7228ad
Peers seeds: 24 , leech: 5
Size 2.83 GB
Completato 12x
Aggiunto 20.11.21 - 11:11:30
Uploader   jeddak1
Votazione (Voti: 0)


Condividi questo bittorrent:


html/blog:


bbcode/forum:




Aggiungi Commento