* Dettagli Torrent   globale  | Commenti (0) 


- Halloween.Con.La.Mummia.2021.ITA-ENG.1080p.DSNP.WEB-DL.DDP5.1.H.264-gattopollo.mkv -


Download via torrent:
Categoria bittorrent BDRip
Descrizione
[center].:: TITOLO ::.[/center]

[center]Halloween.Con.La.Mummia.2021.ITA-ENG.1080p.DSNP.WEB-DL.DDP5.1.H.264-gattopollo[/center]

[center][/center]

[center].:: INFO FILM ::.[/center]

[center]
Titolo Originale: Under Wraps
Scritto da: Alex Zamm, William Robertson
Diretto da: Alex Zamm
Paese di origine: stati Uniti
Lingua originale: inglese
IMDb

.:: TRAMA ::.

Under Wraps (2021) segue tre amici di 12 anni, Marshall, Gilbert e Amy, mentre fanno rivivere accidentalmente una mummia che scoprono nel seminterrato di un vicino. Chiamano affettuosamente la mummia Harold e devono affrettarsi a riportarlo al suo luogo di riposo prima della mezzanotte di Halloween

.:: SCREENSHOT ::.


[/center]

[center].:: INFO TECNICHE ::.

Sorgente Video:  DSNP
Sorgente Audio :  DSNP
Risoluzione: 1920x1080, H.264
Audio 1: ITA E-AC3 6ch @256kb/s
Audio 2: ENG E-AC3 6ch @256kb/s
Sottotitoli: ITA FORCED, ITA FULL, ENG SDH

[center][color=red].:: MEDIAINFO ::.
[/center]


Code

General
Unique ID                                : 64271257307153071812884837493253155902 (0x305A31A381142247E496858A75DD2C3E)
Complete name                            : Halloween.Con.La.Mummia.2021.ITA-ENG.1080p.DSNP.WEB-DL.DDP5.1.H.264-gattopollo.mkv
Format                                   : Matroska
Format version                           : Version 4
File size                                : 4.69 GiB
Duration                                 : 1 h 31 min
Overall bit rate mode                    : Variable
Overall bit rate                         : 7 360 kb/s
Encoded date                             : UTC 2021-11-08 20:49:01
Writing application                      : mkvmerge v62.0.0 ('Apollo&#39 64-bit
Writing library                          : libebml v1.4.2 + libmatroska v1.6.4

Video
ID                                       : 1
Format                                   : AVC
Format/Info                              : Advanced Video Codec
Format profile                           : [email protected]
Format settings                          : CABAC / 4 Ref Frames
Format settings, CABAC                   : Yes
Format settings, Reference frames        : 4 frames
Codec ID                                 : V_MPEG4/ISO/AVC
Duration                                 : 1 h 31 min
Bit rate mode                            : Variable
Bit rate                                 : 6 845 kb/s
Maximum bit rate                         : 12.7 Mb/s
Width                                    : 1 920 pixels
Height                                   : 1 080 pixels
Display aspect ratio                     : 16:9
Frame rate mode                          : Constant
Frame rate                               : 23.976 (24000/1001) FPS
Color space                              : YUV
Chroma subsampling                       : 4:2:0
Bit depth                                : 8 bits
Scan type                                : Progressive
Bits/(Pixel*Frame)                       : 0.138
Stream size                              : 4.36 GiB (93%)
Language                                 : English
Default                                  : Yes
Forced                                   : No
Color range                              : Limited
Color primaries                          : BT.709
Transfer characteristics                 : BT.709
Matrix coefficients                      : BT.709

Audio #1
ID                                       : 2
Format                                   : E-AC-3
Format/Info                              : Enhanced AC-3
Commercial name                          : Dolby Digital Plus
Codec ID                                 : A_EAC3
Duration                                 : 1 h 31 min
Bit rate mode                            : Constant
Bit rate                                 : 256 kb/s
Channel(s)                               : 6 channels
Channel layout                           : L R C LFE Ls Rs
Sampling rate                            : 48.0 kHz
Frame rate                               : 31.250 FPS (1536 SPF)
Compression mode                         : Lossy
Stream size                              : 167 MiB (3%)
Title                                    : Italian
Language                                 : Italian
Service kind                             : Complete Main
Default                                  : Yes
Forced                                   : No

Audio #2
ID                                       : 3
Format                                   : E-AC-3
Format/Info                              : Enhanced AC-3
Commercial name                          : Dolby Digital Plus
Codec ID                                 : A_EAC3
Duration                                 : 1 h 31 min
Bit rate mode                            : Constant
Bit rate                                 : 256 kb/s
Channel(s)                               : 6 channels
Channel layout                           : L R C LFE Ls Rs
Sampling rate                            : 48.0 kHz
Frame rate                               : 31.250 FPS (1536 SPF)
Compression mode                         : Lossy
Stream size                              : 167 MiB (3%)
Title                                    : English
Language                                 : English
Service kind                             : Complete Main
Default                                  : No
Forced                                   : No

Text #1
ID                                       : 4
Format                                   : UTF-8
Codec ID                                 : S_TEXT/UTF8
Codec ID/Info                            : UTF-8 Plain Text
Duration                                 : 2 s 377 ms
Bit rate                                 : 77 b/s
Count of elements                        : 1
Stream size                              : 23.0 Bytes (0%)
Title                                    : Italian [Forced]
Language                                 : Italian
Default                                  : Yes
Forced                                   : Yes

Text #2
ID                                       : 5
Format                                   : UTF-8
Codec ID                                 : S_TEXT/UTF8
Codec ID/Info                            : UTF-8 Plain Text
Duration                                 : 1 h 30 min
Bit rate                                 : 61 b/s
Count of elements                        : 1166
Stream size                              : 41.1 KiB (0%)
Title                                    : Italian
Language                                 : Italian
Default                                  : No
Forced                                   : No

Text #3
ID                                       : 6
Format                                   : UTF-8
Codec ID                                 : S_TEXT/UTF8
Codec ID/Info                            : UTF-8 Plain Text
Duration                                 : 1 h 31 min
Bit rate                                 : 91 b/s
Count of elements                        : 1930
Stream size                              : 61.3 KiB (0%)
Title                                    : English [SDH]
Language                                 : English
Default                                  : No
Forced                                   : No



Info: Per scaricare devi usare un client come uTorrent o Transmission
AnnounceURL
udp://tracker.opentrackr.org:1337/announce
Hash c8e6f5b14866dba4e8d3a5ac5fd0cbddd0e51a68
Peers seeds: 74 , leech: 8
Size 4.69 GB
Completato 1352x
Aggiunto 20.11.21 - 10:11:23
Uploader   ppb1
Votazione (Voti: 0)


Condividi questo bittorrent:


html/blog:


bbcode/forum:




Aggiungi Commento