* Dettagli Torrent   globale  | Commenti (0) 


- ITALIAN PUNK HARDCORE 1980-1989 (2015) -


Download via torrent:
Categoria bittorrent DVD
Descrizione
ITALIAN PUNK HARDCORE 1980-1989 (2015)



Titolo originale:   ITALIAN PUNK HARDCORE 1980-1989
Paese di produzione:   Ita
Anno: 2015
Genere: DOC
Regia: Angelo Bitonto, Giorgio S. Senesi, Roberto Sivilia
Durata: ca. 1.58.34
Numero Episodi:  
00:01:46 Le origini/The Beginning
00:10:05 Le città e i centri nevralgici/The Cities and the Hot Spots
00:21:55 Le band/Bands
00:41:48 L'autoproduzione e le etichette indipendenti/The D.I.Y. and Indipendent Labels
00:53:35 Le fanzine e il passaparola antagonista/The Fanzines and the Antagonist Word of Mouth
01:05:00 Il rapporto conflittuale tra punk e stampa/Controversy with the Press
01:09:28 I concerti/Gigs
01:40:40 Le droghe/Drugs
01:47:36 L'apice e il declino/Climax and Decline



Le origini dell'hardcore punk in Italia. Le città e i centri nevralgici. L'autogestione, i posti occupati, la politica. L'autoproduzione, le cassette a nastro e i dischi in vinile. Le etichette indipendenti. Le fanzine e il passaparola antagonista. I concerti, i raduni, le manifestazioni. Gli scontri, la violenza, gli eccessi, le droghe. Il rapporto conflittuale tra punk e stampa, i quotidiani e le riviste di costume. L'inizio, l'apice e il declino delle grandi band degli anni 80. Interviste a Raw Power, Wretched, Negazione, CCM, Indigesti, Kina, Peggio Punx, Impact, Upset Noise e molti altri.







General
Complete name               : C:VIDEO_TSVTS_01_2.VOB
Format                      : MPEG-PS
File size                   : 1 024 MiB
Duration                    : 33 min 0 s
Overall bit rate mode       : Variable
Overall bit rate            : 4 336 kb/s

Video
ID                          : 224 (0xE0)
Format                      : MPEG Video
Format version              : Version 2
Format profile              : [email protected]
Format settings             : CustomMatrix / BVOP
Format settings, BVOP       : Yes
Format settings, Matrix     : Custom
Format settings, GOP        : M=3, N=12
Format settings, picture st : Frame
Duration                    : 33 min 0 s
Bit rate mode               : Variable
Bit rate                    : 4 057 kb/s
Maximum bit rate            : 7 500 kb/s
Width                       : 720 pixels
Height                      : 576 pixels
Display aspect ratio        : 4:3
Frame rate                  : 25.000 FPS
Standard                    : PAL
Color space                 : YUV
Chroma subsampling          : 4:2:0
Bit depth                   : 8 bits
Scan type                   : Interlaced
Scan order                  : Bottom Field First
Compression mode            : Lossy
Bits/(Pixel*Frame)          : 0.391
Time code of first frame    : 00:36:52:20
Time code source            : Group of pictures header
GOP, Open/Closed            : Closed
Stream size                 : 958 MiB (94%)
Color primaries             : BT.601 PAL
Transfer characteristics    : BT.470 System B/G
Matrix coefficients         : BT.601

Audio
ID                          : 189 (0xBD)-128 (0x80)
Format                      : AC-3
Format/Info                 : Audio Coding 3
Commercial name             : Dolby Digital
Muxing mode                 : DVD-Video
Duration                    : 33 min 0 s
Bit rate mode               : Constant
Bit rate                    : 192 kb/s
Channel(s)                  : 2 channels
Channel layout              : L R
Sampling rate               : 48.0 kHz
Frame rate                  : 31.250 FPS (1536 SPF)
Compression mode            : Lossy
Delay relative to video     : -576 ms
Stream size                 : 45.3 MiB (4%)
Service kind                : Complete Main

Menu





Info: Per scaricare devi usare un client come uTorrent o Transmission
AnnounceURL
udp://tracker.cyberia.is:6969/announce
Hash 191de13dadb17a32e2225f2dabe8180568fdbb6e
Peers seeds: 0 , leech: 0
Size 3.09 GB
Completato 0x
Aggiunto 17.11.21 - 23:11:49
Uploader   Sfrank77
Votazione (Voti: 0)


Condividi questo bittorrent:


html/blog:


bbcode/forum:




Aggiungi Commento