* Dettagli Torrent   globale  | Commenti (0) 


- Strappare.Lungo.i.Bordi.S01.ITALIAN.1080p.NF.WEBRip.DDP5.1.x264-TEPES[rartv] -


Download via torrent:
Categoria bittorrent SerieTv
Descrizione
[center]
[/center]
[center]Strappare.lungo.i.bordi.S01.ITALIAN.1080p.NF.WEBRip.DDP5.1.x264-TEPES[/center]



[center]
Titolo Originale: Strappare Lungo i Bordi
Anno: 2021
Stagione: 01
Episodi: 6
Durata: 22 min (episodio)
Genere:


Trama:
Un fumettista romano la cui coscienza prende le forme di
un armadillo riflette sulla sua vita e un amore mancato
mentre con due amici si reca fuori città.




[/center]

[center]

Risoluzione: 1920x1860, x264
Audio 1: ITA EAC-3 6ch @640kb/s
Audio 2: ENG EAC-3 6ch @640kb/s
Sottotitoli:  ITA, MULTI[/center]

Code

Video
ID : 1
Format : AVC
Format/Info : Advanced Video Codec
Format profile : [email protected]
Format settings : CABAC / 3 Ref Frames
Format settings, CABAC : Yes
Format settings, Reference frames : 3 frames
Codec ID : V_MPEG4/ISO/AVC
Duration : 22 min 32 s
Bit rate mode : Variable
Bit rate : 5 800 kb/s
Maximum bit rate : 8 700 kb/s
Width : 1 920 pixels
Height : 1 080 pixels
Display aspect ratio : 16:9
Frame rate mode : Constant
Frame rate : 25.000 FPS
Color space : YUV
Chroma subsampling : 4:2:0
Bit depth : 8 bits
Scan type : Progressive
Bits/(Pixel*Frame) : 0.112
Stream size : 916 MiB (82%)
Writing library : x264 core 148 r2727 7d026e8
Encoding settings : cabac=1 / ref=3 / deblock=1:0:0 / analyse=0x1:0x111 / me=umh / subme=10 / psy=1 / psy_rd=1.00:0.00 / mixed_ref=1 / me_range=24 / chroma_me=1 / trellis=2 / 8x8dct=0 / cqm=0 / deadzone=21,11 / fast_pskip=1 / chroma_qp_offset=-2 / threads=8 / lookahead_threads=1 / sliced_threads=0 / nr=0 / decimate=1 / interlaced=0 / bluray_compat=0 / stitchable=1 / constrained_intra=0 / bframes=2 / b_pyramid=0 / b_adapt=2 / b_bias=0 / direct=3 / weightb=1 / open_gop=0 / weightp=2 / keyint=250 / keyint_min=25 / scenecut=0 / intra_refresh=0 / rc_lookahead=50 / rc=2pass / mbtree=1 / bitrate=5800 / ratetol=1.0 / qcomp=0.50 / qpmin=6 / qpmax=51 / qpstep=4 / cplxblur=20.0 / qblur=0.5 / vbv_maxrate=8700 / vbv_bufsize=11600 / nal_hrd=vbr / filler=0 / ip_ratio=1.40 / aq=1:1.00
Default : Yes
Forced : No

Audio #1
ID : 2
Format : E-AC-3
Format/Info : Enhanced AC-3
Commercial name : Dolby Digital Plus
Codec ID : A_EAC3
Duration : 22 min 32 s
Bit rate mode : Constant
Bit rate : 640 kb/s
Channel(s) : 6 channels
Channel layout : L R C LFE Ls Rs
Sampling rate : 48.0 kHz
Frame rate : 31.250 FPS (1536 SPF)
Compression mode : Lossy
Stream size : 103 MiB (9%)
Language : Italian
Service kind : Complete Main
Default : Yes
Forced : No

Audio #2
ID : 3
Format : E-AC-3
Format/Info : Enhanced AC-3
Commercial name : Dolby Digital Plus
Codec ID : A_EAC3
Duration : 22 min 32 s
Bit rate mode : Constant
Bit rate : 640 kb/s
Channel(s) : 6 channels
Channel layout : L R C LFE Ls Rs
Sampling rate : 48.0 kHz
Frame rate : 31.250 FPS (1536 SPF)
Compression mode : Lossy
Stream size : 103 MiB (9%)
Language : English
Service kind : Complete Main
Default : No
Forced : No

Text #1
ID : 4
Format : UTF-8
Codec ID : S_TEXT/UTF8
Codec ID/Info : UTF-8 Plain Text
Duration : 3 min 43 s
Bit rate : 1 b/s
Count of elements : 3
Stream size : 45.0 Bytes (0%)
Title : Forced
Language : Italian
Default : Yes
Forced : Yes

Text #2
ID : 5
Format : UTF-8
Codec ID : S_TEXT/UTF8
Codec ID/Info : UTF-8 Plain Text
Duration : 20 min 3 s
Bit rate : 1 b/s
Count of elements : 11
Stream size : 187 Bytes (0%)
Title : Forced
Language : English
Default : No
Forced : No

Text #3
ID : 6
Format : UTF-8
Codec ID : S_TEXT/UTF8
Codec ID/Info : UTF-8 Plain Text
Duration : 19 min 59 s
Bit rate : 103 b/s
Count of elements : 358
Stream size : 15.1 KiB (0%)
Title : SDH
Language : Italian
Default : No
Forced : No

Text #4
ID : 7
Format : UTF-8
Codec ID : S_TEXT/UTF8
Codec ID/Info : UTF-8 Plain Text
Duration : 21 min 50 s
Bit rate : 121 b/s
Count of elements : 309
Stream size : 19.5 KiB (0%)
Language : Arabic
Default : No
Forced : No

Text #5
ID : 8
Format : UTF-8
Codec ID : S_TEXT/UTF8
Codec ID/Info : UTF-8 Plain Text
Duration : 21 min 50 s
Bit rate : 71 b/s
Count of elements : 311
Stream size : 11.5 KiB (0%)
Language : Czech
Default : No
Forced : No

Text #6
ID : 9
Format : UTF-8
Codec ID : S_TEXT/UTF8
Codec ID/Info : UTF-8 Plain Text
Duration : 21 min 48 s
Bit rate : 66 b/s
Count of elements : 301
Stream size : 10.7 KiB (0%)
Language : Danish
Default : No
Forced : No

Text #7
ID : 10
Format : UTF-8
Codec ID : S_TEXT/UTF8
Codec ID/Info : UTF-8 Plain Text
Duration : 21 min 50 s
Bit rate : 68 b/s
Count of elements : 311
Stream size : 10.9 KiB (0%)
Language : German
Default : No
Forced : No

Text #8
ID : 11
Format : UTF-8
Codec ID : S_TEXT/UTF8
Codec ID/Info : UTF-8 Plain Text
Duration : 21 min 50 s
Bit rate : 116 b/s
Count of elements : 299
Stream size : 18.6 KiB (0%)
Language : Greek
Default : No
Forced : No

Text #9
ID : 12
Format : UTF-8
Codec ID : S_TEXT/UTF8
Codec ID/Info : UTF-8 Plain Text
Duration : 21 min 45 s
Bit rate : 71 b/s
Count of elements : 306
Stream size : 11.5 KiB (0%)
Language : English
Default : No
Forced : No

Text #10
ID : 13
Format : UTF-8
Codec ID : S_TEXT/UTF8
Codec ID/Info : UTF-8 Plain Text
Duration : 20 min 8 s
Bit rate : 119 b/s
Count of elements : 354
Stream size : 17.6 KiB (0%)
Title : SDH
Language : English
Default : No
Forced : No

Text #11
ID : 14
Format : UTF-8
Codec ID : S_TEXT/UTF8
Codec ID/Info : UTF-8 Plain Text
Duration : 21 min 50 s
Bit rate : 70 b/s
Count of elements : 309
Stream size : 11.3 KiB (0%)
Language : Spanish
Default : No
Forced : No

Text #12
ID : 15
Format : UTF-8
Codec ID : S_TEXT/UTF8
Codec ID/Info : UTF-8 Plain Text
Duration : 21 min 45 s
Bit rate : 66 b/s
Count of elements : 289
Stream size : 10.5 KiB (0%)
Title : European
Language : Spanish
Default : No
Forced : No

Text #13
ID : 16
Format : UTF-8
Codec ID : S_TEXT/UTF8
Codec ID/Info : UTF-8 Plain Text
Duration : 21 min 51 s
Bit rate : 76 b/s
Count of elements : 262
Stream size : 12.2 KiB (0%)
Language : Finnish
Default : No
Forced : No

Text #14
ID : 17
Format : UTF-8
Codec ID : S_TEXT/UTF8
Codec ID/Info : UTF-8 Plain Text
Duration : 21 min 50 s
Bit rate : 71 b/s
Count of elements : 294
Stream size : 11.4 KiB (0%)
Language : French
Default : No
Forced : No

Text #15
ID : 18
Format : UTF-8
Codec ID : S_TEXT/UTF8
Codec ID/Info : UTF-8 Plain Text
Duration : 21 min 50 s
Bit rate : 107 b/s
Count of elements : 310
Stream size : 17.2 KiB (0%)
Language : Hebrew
Default : No
Forced : No

Text #16
ID : 19
Format : UTF-8
Codec ID : S_TEXT/UTF8
Codec ID/Info : UTF-8 Plain Text
Duration : 21 min 50 s
Bit rate : 69 b/s
Count of elements : 284
Stream size : 11.1 KiB (0%)
Language : Croatian
Default : No
Forced : No

Text #17
ID : 20
Format : UTF-8
Codec ID : S_TEXT/UTF8
Codec ID/Info : UTF-8 Plain Text
Duration : 21 min 50 s
Bit rate : 69 b/s
Count of elements : 288
Stream size : 11.0 KiB (0%)
Language : Hungarian
Default : No
Forced : No

Text #18
ID : 21
Format : UTF-8
Codec ID : S_TEXT/UTF8
Codec ID/Info : UTF-8 Plain Text
Duration : 21 min 50 s
Bit rate : 71 b/s
Count of elements : 304
Stream size : 11.4 KiB (0%)
Language : Indonesian
Default : No
Forced : No

Text #19
ID : 22
Format : UTF-8
Codec ID : S_TEXT/UTF8
Codec ID/Info : UTF-8 Plain Text
Duration : 21 min 50 s
Bit rate : 71 b/s
Count of elements : 316
Stream size : 11.5 KiB (0%)
Language : Japanese
Default : No
Forced : No

Text #20
ID : 23
Format : UTF-8
Codec ID : S_TEXT/UTF8
Codec ID/Info : UTF-8 Plain Text
Duration : 21 min 45 s
Bit rate : 88 b/s
Count of elements : 313
Stream size : 14.0 KiB (0%)
Language : Korean
Default : No
Forced : No

Text #21
ID : 24
Format : UTF-8
Codec ID : S_TEXT/UTF8
Codec ID/Info : UTF-8 Plain Text
Duration : 21 min 50 s
Bit rate : 64 b/s
Count of elements : 294
Stream size : 10.3 KiB (0%)
Language : Malay
Default : No
Forced : No

Text #22
ID : 25
Format : UTF-8
Codec ID : S_TEXT/UTF8
Codec ID/Info : UTF-8 Plain Text
Duration : 21 min 50 s
Bit rate : 65 b/s
Count of elements : 264
Stream size : 10.4 KiB (0%)
Language : Norwegian Bokmal
Default : No
Forced : No

Text #23
ID : 26
Format : UTF-8
Codec ID : S_TEXT/UTF8
Codec ID/Info : UTF-8 Plain Text
Duration : 21 min 50 s
Bit rate : 65 b/s
Count of elements : 239
Stream size : 10.5 KiB (0%)
Language : Dutch
Default : No
Forced : No

Text #24
ID : 27
Format : UTF-8
Codec ID : S_TEXT/UTF8
Codec ID/Info : UTF-8 Plain Text
Duration : 21 min 50 s
Bit rate : 72 b/s
Count of elements : 280
Stream size : 11.6 KiB (0%)
Language : Polish
Default : No
Forced : No

Text #25
ID : 28
Format : UTF-8
Codec ID : S_TEXT/UTF8
Codec ID/Info : UTF-8 Plain Text
Duration : 21 min 50 s
Bit rate : 65 b/s
Count of elements : 281
Stream size : 10.5 KiB (0%)
Language : Portuguese
Default : No
Forced : No

Text #26
ID : 29
Format : UTF-8
Codec ID : S_TEXT/UTF8
Codec ID/Info : UTF-8 Plain Text
Duration : 21 min 50 s
Bit rate : 76 b/s
Count of elements : 289
Stream size : 12.3 KiB (0%)
Title : Brazilian
Language : Portuguese
Default : No
Forced : No

Text #27
ID : 30
Format : UTF-8
Codec ID : S_TEXT/UTF8
Codec ID/Info : UTF-8 Plain Text
Duration : 21 min 50 s
Bit rate : 77 b/s
Count of elements : 275
Stream size : 12.5 KiB (0%)
Language : Romanian
Default : No
Forced : No

Text #28
ID : 31
Format : UTF-8
Codec ID : S_TEXT/UTF8
Codec ID/Info : UTF-8 Plain Text
Duration : 21 min 50 s
Bit rate : 111 b/s
Count of elements : 290
Stream size : 17.9 KiB (0%)
Language : Russian
Default : No
Forced : No

Text #29
ID : 32
Format : UTF-8
Codec ID : S_TEXT/UTF8
Codec ID/Info : UTF-8 Plain Text
Duration : 21 min 50 s
Bit rate : 65 b/s
Count of elements : 251
Stream size : 10.5 KiB (0%)
Language : Swedish
Default : No
Forced : No

Text #30
ID : 33
Format : UTF-8
Codec ID : S_TEXT/UTF8
Codec ID/Info : UTF-8 Plain Text
Duration : 21 min 50 s
Bit rate : 183 b/s
Count of elements : 312
Stream size : 29.4 KiB (0%)
Language : Thai
Default : No
Forced : No

Text #31
ID : 34
Format : UTF-8
Codec ID : S_TEXT/UTF8
Codec ID/Info : UTF-8 Plain Text
Duration : 21 min 50 s
Bit rate : 69 b/s
Count of elements : 279
Stream size : 11.2 KiB (0%)
Language : Turkish
Default : No
Forced : No

Text #32
ID : 35
Format : UTF-8
Codec ID : S_TEXT/UTF8
Codec ID/Info : UTF-8 Plain Text
Duration : 20 min 3 s
Bit rate : 120 b/s
Count of elements : 304
Stream size : 17.7 KiB (0%)
Language : Ukrainian
Default : No
Forced : No

Text #33
ID : 36
Format : UTF-8
Codec ID : S_TEXT/UTF8
Codec ID/Info : UTF-8 Plain Text
Duration : 21 min 50 s
Bit rate : 96 b/s
Count of elements : 290
Stream size : 15.5 KiB (0%)
Language : Vietnamese
Default : No
Forced : No

Text #34
ID : 37
Format : UTF-8
Codec ID : S_TEXT/UTF8
Codec ID/Info : UTF-8 Plain Text
Duration : 21 min 50 s
Bit rate : 73 b/s
Count of elements : 312
Stream size : 11.7 KiB (0%)
Title : Simplified
Language : Chinese
Default : No
Forced : No

Text #35
ID : 38
Format : UTF-8
Codec ID : S_TEXT/UTF8
Codec ID/Info : UTF-8 Plain Text
Duration : 21 min 50 s
Bit rate : 67 b/s
Count of elements : 312
Stream size : 10.7 KiB (0%)
Title : Traditional
Language : Chinese
Default : No
Forced : No


[center]
[img]https://occ-0-3019-2581.1.nflxso.net/dnm/api/v6/tx1O544a9T7n8Z_G12qaboulQQE/AAAABU8b9347sTzodV9E03wHVenHMtbSAiQOcOF8_k0B6iHzdnBYYXN0bGEpL-Wc4LpNmDpoG-AeU6FcmlXgoXtq1pUOgBOd2pFY9i9J7UxCol5SlJST-MFEfNTvjfdTMtc32wMdZX0IicvHNvauyfgR3CbV83TAibU5sQjj6LdEFC55.webp?r=b69[/img]
[hide thanked=1][magnet]magnet:?xt=urn:btih:9ee12b842ea1d4cf18984dc274b7d968fb63ddf4&dn=Tear.Along.the.Dotted.Line.S01.ITALIAN.1080p.NF.WEBRip.DDP5.1.x264-TEPES%5Brartv%5D&tr=http%3A%2F%2Ftracker.trackerfix.com%3A80%2Fannounce&tr=udp%3A%2F%2F9.rarbg.me%3A2780&tr=udp%3A%2F%2F9.rarbg.to%3A2910&tr=udp%3A%2F%2Ftracker.slowcheetah.org%3A14790&tr=udp%3A%2F%2Ftracker.tallpenguin.org%3A15730[/magnet]

[/hide]
[/center]



[center]


[/center]
Info: Per scaricare devi usare un client come uTorrent o Transmission
AnnounceURL
http://tracker.trackerfix.com:80/announce
Hash 9ee12b842ea1d4cf18984dc274b7d968fb63ddf4
Peers seeds: 0 , leech: 0
Size 5.76 GB
Completato 0x
Aggiunto 17.11.21 - 18:11:44
Uploader   ppb1
Votazione (Voti: 0)


Condividi questo bittorrent:


html/blog:


bbcode/forum:




Aggiungi Commento