* Dettagli Torrent   globale  | Commenti (0) 


- ---------- Le Iene Show -- 26/12/2021 ------------ -


Download via torrent:
Categoria bittorrent DVD
Descrizione
Le Iene Show (26/10/2021)





Titolo originale:  Le iene
Paese di produzione: ita
Anno: 2021
Genere: Inchiesta
Regia: Mediaset
Durata: 3.09.00



Nicola Savino e la Gialappa's Band; Veronica Ruggeri, Nina Palmieri e Roberta Rei; Giulio Golia, Filippo Roma e Matteo Viviani...

[spoiler]
General
Unique ID                                : 144800058258097581113296239699922428160 (0x6CEF7A10895F4029FDC53E8D7782A100)
Complete name                            : C:Leiene 26-10-2021.mkv
Format                                   : Matroska
Format version                           : Version 4
File size                                : 3.42 GiB
Duration                                 : 3 h 11 min
Overall bit rate mode                    : Variable
Overall bit rate                         : 2 550 kb/s
Encoded date                             : UTC 2021-10-27 13:03:39
Writing application                      : mkvmerge v51.0.0 ('I Wish&#39 64-bit
Writing library                          : libebml v1.4.0 + libmatroska v1.6.2

Video
ID                                       : 1
Format                                   : AVC
Format/Info                              : Advanced Video Codec
Format profile                           : [email protected]
Format settings                          : CABAC / 3 Ref Frames
Format settings, CABAC                   : Yes
Format settings, Reference frames        : 3 frames
Codec ID                                 : V_MPEG4/ISO/AVC
Duration                                 : 3 h 11 min
Bit rate mode                            : Variable
Bit rate                                 : 2 421 kb/s
Maximum bit rate                         : 25.0 Mb/s
Width                                    : 1 280 pixels
Height                                   : 720 pixels
Display aspect ratio                     : 16:9
Frame rate mode                          : Constant
Frame rate                               : 25.000 FPS
Color space                              : YUV
Chroma subsampling                       : 4:2:0
Bit depth                                : 8 bits
Scan type                                : Progressive
Bits/(Pixel*Frame)                       : 0.105
Stream size                              : 3.24 GiB (95%)
Writing library                          : x264 core 161 r3018 db0d417
Encoding settings                        : cabac=1 / ref=3 / deblock=1:0:0 / analyse=0x3:0x113 / me=hex / subme=7 / psy=1 / psy_rd=1.00:0.00 / mixed_ref=1 / me_range=16 / chroma_me=1 / trellis=1 / 8x8dct=1 / cqm=0 / deadzone=21,11 / fast_pskip=1 / chroma_qp_offset=-2 / threads=22 / lookahead_threads=3 / sliced_threads=0 / nr=0 / decimate=1 / interlaced=0 / bluray_compat=0 / constrained_intra=0 / bframes=3 / b_pyramid=0 / b_adapt=1 / b_bias=0 / direct=1 / weightb=1 / open_gop=0 / weightp=2 / keyint=250 / keyint_min=25 / scenecut=40 / intra_refresh=0 / rc_lookahead=40 / rc=2pass / mbtree=1 / bitrate=2421 / ratetol=1.0 / qcomp=0.60 / qpmin=0 / qpmax=69 / qpstep=4 / cplxblur=20.0 / qblur=0.5 / vbv_maxrate=25000 / vbv_bufsize=25000 / nal_hrd=vbr / filler=0 / ip_ratio=1.40 / aq=1:1.00
Default                                  : Yes
Forced                                   : No
Color range                              : Limited
Color primaries                          : BT.709
Transfer characteristics                 : BT.709
Matrix coefficients                      : BT.709

Audio
ID                                       : 2
Format                                   : AAC LC
Format/Info                              : Advanced Audio Codec Low Complexity
Codec ID                                 : A_AAC-2
Duration                                 : 3 h 11 min
Bit rate                                 : 128 kb/s
Channel(s)                               : 2 channels
Channel layout                           : L R
Sampling rate                            : 48.0 kHz
Frame rate                               : 46.875 FPS (1024 SPF)
Compression mode                         : Lossy
Stream size                              : 176 MiB (5%)
Language                                 : Italian
Default                                  : Yes
Forced                                   : No




[/spoiler]







Info: Per scaricare devi usare un client come uTorrent o Transmission
AnnounceURL
udp://tracker.torrent.eu.org:451/announce
Hash a73652b1f6582e4140061b9ee37be8d569421415
Peers seeds: 0 , leech: 0
Size 3.42 GB
Completato 38x
Aggiunto 27.10.21 - 22:10:20
Uploader   Sfrank77
Votazione (Voti: 0)


Condividi questo bittorrent:


html/blog:


bbcode/forum:




Aggiungi Commento