* Dettagli Torrent   globale  | Commenti (0) 


- Dr.Death.S01E02.Grandi.Speranze.1080p.AMZN.WEB-DL.DDP5.1.H.264-gattopollo.mkv -


Download via torrent:
Categoria bittorrent SerieTv
Descrizione
[center].:: TITOLO ::.[/center]

[center]Dr.Death.S01.1080p.AMZN.WEB-DL.DDP5.1.H.264-gattopollo[/center]


[center][/center]


[center].:: INFO SERIE ::.[/center]


[center]
Paese Stati Uniti d'America
Anno 2021 – in produzione
Formato serie TV
Genere drammatico, thriller, medico
Lingua originale inglese
IMDb


.:: TRAMA ::.

La serie narra le vicende realmente accadute di Christopher Duntsch, giovane e brillante neurochirugo che opera a Dallas, che attira sospetti sulle sue operazioni che provocano sempre più spesso danni permanenti o morte ai suoi pazienti, anche per operazioni di routine; la serie è l'adattamento televisivo dell'omonimo podcast del 2018.

.:: SCREENSHOT ::.

[/center]


[center].:: INFO TECNICHE ::.

Sorgente Video: AMZN
Sorgente Audio : AMZN
Risoluzione: 1920x1080, H.264 CBR
Audio 1: ITA E-AC3 6ch @640Kb/s
Audio 2: ENG E-AC3 6ch @640kb/s
Sottotitoli: ITA FORCED, ITA FULL, ENG FULL, ENG SDH [/center]


[center].:: MEDIAINFO ::.[/center]



Code

General
Unique ID                                : 88288092991282937808884108234478480610 (0x426BAB0F51441706D02B6E7DE8566CE2)
Complete name                            : Dr.Death.S01E01.Doppie.Personalita.1080p.AMZN.WEB-DL.DDP5.1.H.264-gattopollo.mkv
Format                                   : Matroska
Format version                           : Version 4
File size                                : 2.47 GiB
Duration                                 : 43 min 34 s
Overall bit rate                         : 8 131 kb/s
Encoded date                             : UTC 2021-09-12 05:35:55
Writing application                      : mkvmerge v61.0.0 ('So&#39 64-bit
Writing library                          : libebml v1.4.2 + libmatroska v1.6.4

Video
ID                                       : 1
Format                                   : AVC
Format/Info                              : Advanced Video Codec
Format profile                           : [email protected]
Format settings                          : CABAC / 4 Ref Frames
Format settings, CABAC                   : Yes
Format settings, Reference frames        : 4 frames
Codec ID                                 : V_MPEG4/ISO/AVC
Duration                                 : 43 min 34 s
Bit rate mode                            : Constant
Bit rate                                 : 6 848 kb/s
Nominal bit rate                         : 10 000 kb/s
Width                                    : 1 920 pixels
Height                                   : 1 080 pixels
Display aspect ratio                     : 16:9
Frame rate mode                          : Constant
Frame rate                               : 23.976 (24000/1001) FPS
Color space                              : YUV
Chroma subsampling                       : 4:2:0
Bit depth                                : 8 bits
Scan type                                : Progressive
Bits/(Pixel*Frame)                       : 0.138
Stream size                              : 2.08 GiB (84%)
Language                                 : English
Default                                  : Yes
Forced                                   : No
Color range                              : Limited
Color primaries                          : BT.709
Transfer characteristics                 : BT.709
Matrix coefficients                      : BT.709

Audio #1
ID                                       : 2
Format                                   : E-AC-3
Format/Info                              : Enhanced AC-3
Commercial name                          : Dolby Digital Plus
Codec ID                                 : A_EAC3
Duration                                 : 43 min 34 s
Bit rate mode                            : Constant
Bit rate                                 : 640 kb/s
Channel(s)                               : 6 channels
Channel layout                           : L R C LFE Ls Rs
Sampling rate                            : 48.0 kHz
Frame rate                               : 31.250 FPS (1536 SPF)
Compression mode                         : Lossy
Stream size                              : 199 MiB (8%)
Title                                    : Italian
Language                                 : Italian
Service kind                             : Complete Main
Default                                  : Yes
Forced                                   : No

Audio #2
ID                                       : 3
Format                                   : E-AC-3
Format/Info                              : Enhanced AC-3
Commercial name                          : Dolby Digital Plus
Codec ID                                 : A_EAC3
Duration                                 : 43 min 34 s
Bit rate mode                            : Constant
Bit rate                                 : 640 kb/s
Channel(s)                               : 6 channels
Channel layout                           : L R C LFE Ls Rs
Sampling rate                            : 48.0 kHz
Frame rate                               : 31.250 FPS (1536 SPF)
Compression mode                         : Lossy
Stream size                              : 199 MiB (8%)
Title                                    : English
Language                                 : English
Service kind                             : Complete Main
Default                                  : No
Forced                                   : No

Text #1
ID                                       : 4
Format                                   : UTF-8
Codec ID                                 : S_TEXT/UTF8
Codec ID/Info                            : UTF-8 Plain Text
Duration                                 : 43 min 27 s
Bit rate                                 : 1 b/s
Count of elements                        : 17
Stream size                              : 483 Bytes (0%)
Title                                    : Italian [Forced]
Language                                 : Italian
Default                                  : No
Forced                                   : No

Text #2
ID                                       : 5
Format                                   : UTF-8
Codec ID                                 : S_TEXT/UTF8
Codec ID/Info                            : UTF-8 Plain Text
Duration                                 : 43 min 27 s
Bit rate                                 : 66 b/s
Count of elements                        : 623
Stream size                              : 21.0 KiB (0%)
Title                                    : Italian
Language                                 : Italian
Default                                  : No
Forced                                   : No

Text #3
ID                                       : 6
Format                                   : UTF-8
Codec ID                                 : S_TEXT/UTF8
Codec ID/Info                            : UTF-8 Plain Text
Duration                                 : 41 min 33 s
Bit rate                                 : 73 b/s
Count of elements                        : 642
Stream size                              : 22.3 KiB (0%)
Title                                    : English
Language                                 : English
Default                                  : No
Forced                                   : No

Text #4
ID                                       : 7
Format                                   : UTF-8
Codec ID                                 : S_TEXT/UTF8
Codec ID/Info                            : UTF-8 Plain Text
Duration                                 : 41 min 37 s
Bit rate                                 : 81 b/s
Count of elements                        : 732
Stream size                              : 24.9 KiB (0%)
Title                                    : English [SDH]
Language                                 : English
Default                                  : No
Forced                                   : No




Info: Per scaricare devi usare un client come uTorrent o Transmission
AnnounceURL
udp://tracker.torrent.eu.org:451/announce
Hash 200ea3baa3c54572359df884f3a3271fc0c021f3
Peers seeds: 28 , leech: 2
Size 3.12 GB
Completato 892x
Aggiunto 19.09.21 - 18:09:38
Uploader   ppb1
Votazione (Voti: 0)


Condividi questo bittorrent:


html/blog:


bbcode/forum:




Aggiungi Commento