* Dettagli Torrent   globale  | Commenti (0) 


- Anatomy - Anatomie (2000) 720p h264 Ac3 5.1 Ita Eng Sub Ita Eng-MIRCrew -


Download via torrent:
Categoria bittorrent BDRip
Descrizione
Anatomy - Anatomie (2000) 720p h264 Ac3 5.1 Ita Eng Sub Ita Eng-MIRCrew




NO FOUND ONLY ORIGINAL RELEASE

My release is always in double track audio italian and Original audio
for select it use VLC or dvd player home
not use wmp

Anatomy - Anatomie (2000)

Quality MIRCrew in HD 720p da 1,8 gb









Titolo originale Anatomie
Lingua originale Tedesco
Paese di produzione Germania
Anno 2000
Durata 103 min
Rapporto 2,35 : 1
Genere Horror, thriller
Regia Stefan Ruzowitzky
Soggetto Peter Engelmann
Sceneggiatura Stefan Ruzowitzky
Casa di produzione Deutsche Columbia TriStar Filmproduktion/Claussen & Wöbke Filmproduktion GmbH
Fotografia Peter von Haller
Costumi Nicole Fischnaller



   Franka Potente: Paula Henning
   Benno Fürmann: Hein
   Anna Loos: Gretchen
   Sebastian Blomberg: Caspar
   Holger Speckhahn: Phil
   Traugott Buhre: Prof. Grombek
   Oliver Wnuk: Ludwig
   Arndt Schwering-Sohnrey: David
   Andreas Günther: Franz
   Antonia Cäcilia Holfelder: Gabi
   Rüdiger Vogler: Dott. Henning, padre di Paula
   Barbara M. Ahren: madre di Paula
   Werner Dissel: nonno di Paula
   Gennadij Vengerov:
   Thomas Meinhardt:



Una studentessa di medicina inizia un corso estivo all'Università di Heidelberg. David è al suo tavolo da dissezione. L'ha incontrato il giorno prima sul treno. Qualcosa è sbagliato.



Medical student Paula Henning wins a place at an exclusive Heidelberg medical school. When the body of a young man she met on the train turns up on her dissection table, she begins to investigate the mysterious circumstances surrounding his death, and uncovers a gruesome conspiracy perpetrated by an Antihippocratic secret society operating within the school

 

















[spoiler]General

Complete name                            : Anatomy - Anatomie (2000) 720p h264 Ac3 5.1 Ita Eng Sub Ita Eng-MIRCrewAnatomy - Anatomie (2000) 720p h264 Ac3 5.1 Ita Eng Sub Ita Eng-MIRCrew.mkv
Format                                   : Matroska
Format version                           : Version 2
File size                                : 1.84 GiB
Duration                                 : 1h 39mn
Overall bit rate                         : 2 651 Kbps
Movie name                               : MIRCrew
Encoded date                             : UTC 2019-10-25 00:22:14
Writing application                      : mkvmerge v5.8.0 ('No Sleep / Pillow&#39 built on Sep  2 2012 15:37:04
Writing library                          : Lavf54.63.100
ARTIST                                   : robbyrs
COMMENT                                  : MIRCrew
COPYRIGHT                                : MIRCrew

Video
ID                                       : 1
Format                                   : AVC
Format/Info                              : Advanced Video Codec
Format profile                           : [email protected]
Format settings, CABAC                   : Yes
Format settings, ReFrames                : 2 frames
Codec ID                                 : V_MPEG4/ISO/AVC
Duration                                 : 1h 39mn
Bit rate                                 : 1 900 Kbps
Width                                    : 1 280 pixels
Height                                   : 544 pixels
Display aspect ratio                     : 2.35:1
Frame rate mode                          : Variable
Frame rate                               : 23.976 fps
Color space                              : YUV
Chroma subsampling                       : 4:2:0
Bit depth                                : 8 bits
Scan type                                : Progressive
Bits/(Pixel*Frame)                       : 0.114
Stream size                              : 1.27 GiB (69%)
Title                                    : MIRCrew
Writing library                          : x264 core 130 r2273
Encoding settings                        : cabac=1 / ref=2 / deblock=1:-1:-1
Language                                 : Italian
Default                                  : Yes
Forced                                   : No
DURATION                                 : 01:39:21.915000000

Audio #1
ID                                       : 2
Format                                   : AC-3
Format/Info                              : Audio Coding 3
Mode extension                           : CM (complete main)
Codec ID                                 : A_AC3
Duration                                 : 1h 39mn
Bit rate mode                            : Constant
Bit rate                                 : 384 Kbps
Channel(s)                               : 6 channels
Channel positions                        : Front: L C R, Side: L R, LFE
Sampling rate                            : 48.0 KHz
Bit depth                                : 16 bits
Compression mode                         : Lossy
Delay relative to video                  : -42ms
Stream size                              : 273 MiB (14%)
Title                                    : Ita Ac3 5.1
Language                                 : Italian
Default                                  : Yes
Forced                                   : No

Audio #2
ID                                       : 3
Format                                   : AC-3
Format/Info                              : Audio Coding 3
Mode extension                           : CM (complete main)
Codec ID                                 : A_AC3
Duration                                 : 1h 39mn
Bit rate mode                            : Constant
Bit rate                                 : 384 Kbps
Channel(s)                               : 6 channels
Channel positions                        : Front: L C R, Side: L R, LFE
Sampling rate                            : 48.0 KHz
Bit depth                                : 16 bits
Compression mode                         : Lossy
Delay relative to video                  : -5ms
Stream size                              : 273 MiB (14%)
Title                                    : Eng Ac3 5.1
Language                                 : English
Default                                  : No
Forced                                   : No
DURATION                                 : 01:39:21.834000000


Menu
00:00:00.000                             : :Start
00:02:13.234                             : aula Henning
00:06:58.001                             : :"Where am I?"
00:09:34.235                             : :A textbook case
00:13:26.869                             : :The anatomy lab
00:16:59.570                             : :Getting to know you
00:21:00.870                             : :The dissecting room
00:23:22.003                             : rofessor Grombek
00:24:36.503                             : :Genuine human speciman
00:27:33.104                             : :An old acquaintance
00:30:55.705                             : :Blood samples
00:32:40.172                             : :Tissue samples
00:37:09.572                             : :Girl talk
00:40:14.440                             : :Anti-Hippocrates Society
00:41:40.440                             : romidal
00:46:36.707                             : :A warning
00:49:48.840                             : :Anatomy test
00:51:19.074                             : :Hein
00:52:40.374                             : :Over between them
00:56:40.507                             : :Morgue lockout
01:02:18.207                             : :A present
01:05:27.741                             : :"Gretchen's on table 3."
01:08:34.908                             : :The Lodge
01:12:32.675                             : :Lodge meeting
01:16:43.909                             : :Comforting Paula
01:20:23.376                             : :The Specimen Room
01:22:48.676                             : :Oliver the historian
01:31:31.709                             : :Shock ending





[/spoiler]





Info: Per scaricare devi usare un client come uTorrent o Transmission
AnnounceURL
udp://tracker.torrent.eu.org:451/announce
Hash f296074282ac6e64af21390669e90cfc715f67b6
Peers seeds: 24 , leech: 6
Size 1.84 GB
Completato 707x
Aggiunto 12.09.21 - 18:09:42
Uploader   robbyrs
Votazione (Voti: 0)


Condividi questo bittorrent:


html/blog:


bbcode/forum:




Aggiungi Commento