* Dettagli Torrent   globale  | Commenti (0) 


- Blades Of Glory - Due pattini per la gloria (2007) 1080p h264 Ac3 5.1 Ita Eng Sub Ita Eng-MIRCrew -


Download via torrent:
Categoria bittorrent BDRip
Descrizione
Blades Of Glory - Due pattini per la gloria (2007) 1080p h264 Ac3 5.1 Ita Eng Sub Ita Eng-MIRCrew




NO FOUND ONLY ORIGINAL RELEASE

My release is always in double track audio italian and Original audio
for select it use VLC or dvd player home
not use wmp

Blades of Glory - Due pattini per la gloria (2007)

Quality MIRCrew in HD 720p da 2,2 gb










Titolo originale Blades of Glory
Paese di produzione Stati Uniti d'America
Anno 2007
Durata 93 min
Rapporto Widescreen
Genere commedia
Regia Will Speck, Josh Gordon
Soggetto Jeff Cox, Craig Cox, Busy Philipps
Sceneggiatura Jeff Cox, Craig Cox, John Altschuler, Dave Krinsky



   Will Ferrell: Chazz Michael Michaels
   Jon Heder: Jimmy MacElroy
   Craig T. Nelson: Coach
   Jenna Fischer: Katie Van Waldenberg
   Will Arnett: Stranz Van Waldenberg
   Amy Poehler: Fairchild Van Waldenberg
   Nick Swardson: Hector
   William Fichtner: Darren MacElroy
   Romany Malco: Jesse
   Rob Corddry: Bryce
   William Daniels: Commissioner Ebbers



Jimmy MacElroy è un giovane pattinatore timido e talentuoso, bimbo prodigio effeminato e molto amato dal pubblico. Chazz Michael Michaels è invece un pattinatore arrogante e sfacciato, amato dalle donne per il suo fascino irresistibile.



When rivalry between the world's best men's figure skaters - sex addicted, improvisational Chazz Michael Michaels and germophobic, precise Jimmy MacElroy - breaks into a fight on the awards platform, they're banned from the event for life.

 














[spoiler]General

Complete name                            : Blades Of Glory - Due pattini per la gloria (2007).1080p.h264.ita.eng.sub.ita.eng-MIRCrewBlades Of Glory - Due pattini per la gloria (2007).1080p.h264.ita.eng.sub.ita.eng-MIRCrew.mkv
Format                                   : Matroska
Format version                           : Version 2
File size                                : 2.26 GiB
Duration                                 : 1h 33mn
Overall bit rate                         : 3 449 Kbps
Movie name                               : MIRCrew
Encoded date                             : UTC 2020-04-09 21:15:17
Writing application                      : mkvmerge v5.8.0 ('No Sleep / Pillow&#39 built on Sep  2 2012 15:37:04
Writing library                          : Lavf54.63.100
COMMENT                                  : MIRCrew

Video
ID                                       : 1
Format                                   : AVC
Format/Info                              : Advanced Video Codec
Format profile                           : [email protected]
Format settings, CABAC                   : Yes
Format settings, ReFrames                : 2 frames
Codec ID                                 : V_MPEG4/ISO/AVC
Duration                                 : 1h 33mn
Bit rate                                 : 2 600 Kbps
Width                                    : 1 920 pixels
Height                                   : 1 072 pixels
Display aspect ratio                     : 16:9
Frame rate mode                          : Variable
Frame rate                               : 23.976 fps
Color space                              : YUV
Chroma subsampling                       : 4:2:0
Bit depth                                : 8 bits
Scan type                                : Progressive
Bits/(Pixel*Frame)                       : 0.053
Stream size                              : 1.63 GiB (72%)
Title                                    : MIRCrew
Writing library                          : x264 core 130 r2273
Encoding settings                        : cabac=1 / ref=2 / deblock=1:-1:-1/
Language                                 : Italian
Default                                  : Yes
Forced                                   : No
DURATION                                 : 01:33:09.543000000


Audio #1
ID                                       : 2
Format                                   : AC-3
Format/Info                              : Audio Coding 3
Mode extension                           : CM (complete main)
Codec ID                                 : A_AC3
Duration                                 : 1h 33mn
Bit rate mode                            : Constant
Bit rate                                 : 448 Kbps
Channel(s)                               : 6 channels
Channel positions                        : Front: L C R, Side: L R, LFE
Sampling rate                            : 48.0 KHz
Bit depth                                : 16 bits
Compression mode                         : Lossy
Delay relative to video                  : -5ms
Stream size                              : 300 MiB (13%)
Title                                    : Ita Ac3 5.1
Language                                 : English
Default                                  : Yes
Forced                                   : Yes
DURATION                                 : 01:33:44.096000000

Audio #2
ID                                       : 3
Format                                   : AC-3
Format/Info                              : Audio Coding 3
Mode extension                           : CM (complete main)
Codec ID                                 : A_AC3
Duration                                 : 1h 33mn
Bit rate mode                            : Constant
Bit rate                                 : 448 Kbps
Channel(s)                               : 6 channels
Channel positions                        : Front: L C R, Side: L R, LFE
Sampling rate                            : 48.0 KHz
Bit depth                                : 16 bits
Compression mode                         : Lossy
Delay relative to video                  : -5ms
Stream size                              : 300 MiB (13%)
Title                                    : Eng Ac3 5.1
Language                                 : Italian
Default                                  : No
Forced                                   : No
DURATION                                 : 01:33:44.096000000

Menu
00:00:00.000                             : :00:00:00.000
00:05:57.357                             : :00:05:57.357
00:15:53.911                             : :00:15:53.911
00:24:23.545                             : :00:24:23.545
00:30:23.613                             : :00:30:23.613
00:39:00.547                             : :00:39:00.547
00:46:44.468                             : :00:46:44.468
00:54:26.555                             : :00:54:26.555
01:02:49.557                             : :01:02:49.557
01:09:57.235                             : :01:09:57.235
01:16:03.809                             : :01:16:03.809
01:26:23.720                             : :01:26:23.720




[/spoiler]





Info: Per scaricare devi usare un client come uTorrent o Transmission
AnnounceURL
udp://tracker.torrent.eu.org:451/announce
Hash bdd78482715ba63f644f5484d0bf602a03031f1a
Peers seeds: 23 , leech: 1
Size 2.26 GB
Completato 416x
Aggiunto 12.09.21 - 17:09:47
Uploader   robbyrs
Votazione (Voti: 0)


Condividi questo bittorrent:


html/blog:


bbcode/forum:




Aggiungi Commento