* Dettagli Torrent   globale  | Commenti (0) 


- Sognando a New York - In The Heights (2021) 720p h264 Ac3 5.1 Ita Eng Sub Ita Eng-MIRCrew -


Download via torrent:
Categoria bittorrent BDRip
Descrizione
Sognando a New York - In The Heights (2021) 720p h264 Ac3 5.1 Ita Eng Sub Ita Eng-MIRCrew




NO FOUND ONLY ORIGINAL RELEASE

My release is always in double track audio italian and Original audio
for select it use VLC or dvd player home
not use wmp

PRESENTI I SOTTOTITOLI ITALIANI PER IL CANTATO


Sognando a New York - In The Heights (2021)

Quality MIRCrew in HD 720p da 2,6 gb










Titolo originale In the Heights
Lingua originale inglese
Paese di produzione Stati Uniti d'America
Anno 2021
Durata 143 min
Genere musicale, drammatico
Regia Jon M. Chu
Soggetto musical di Lin-Manuel Miranda e Quiara Alegría Hudes
Sceneggiatura Quiara Alegría Hudes



   Anthony Ramos: Usnavi de la Vega
   Corey Hawkins: Benny
   Leslie Grace: Nina Rosario
   Melissa Barrera: Vanessa
   Olga Merediz: Abuela Claudia
   Daphne Rubin-Vega: Daniela
   Gregory Diaz IV: Sonny de la Vega
   Stephanie Beatriz: Carla
   Dascha Polanco: Cuca
   Jimmy Smits: Kevin Rosario
   Noah Catala: Graffiti Pete
   Marc Anthony: senor de la Vega
   Lin-Manuel Miranda: Piragüero



Il profumo di un caffè caldo aleggia nell'aria fuori dalla fermata della strada 181 della metropolitana. Il simpatico capo della Bodega Usnavi risparmia ogni centesimo dalla sua routine quotidiana e spera, sogna e canta una vita migliore.



In the Heights centers on a variety of characters living in the neighborhood of Washington Heights, on the northern tip of Manhattan. At the center of the show is Usnavi, a bodega owner who looks after the aging Cuban lady next door, pines for the gorgeous girl working in the neighboring beauty salon and dreams of winning the lottery and escaping to the shores of his native Dominican Republic.

 





















[spoiler]General

Complete name                            : Sognando a New York - In The Heights (2021) 720p h264 Ac3 5.1 Ita Eng Sub Ita Eng-MIRCrewSognando a New York - In The Heights (2021) 720p h264 Ac3 5.1 Ita Eng Sub Ita Eng-MIRCrew.mkv
Format                                   : Matroska
Format version                           : Version 2
File size                                : 2.66 GiB
Duration                                 : 2h 23mn
Overall bit rate                         : 2 659 Kbps
Movie name                               : MIRCrew
Encoded date                             : UTC 2021-08-21 20:37:47
Writing application                      : mkvmerge v5.8.0 ('No Sleep / Pillow&#39 built on Sep  2 2012 15:37:04
Writing library                          : Lavf54.63.100
COMMENT                                  : MIRCrew

Video
ID                                       : 1
Format                                   : AVC
Format/Info                              : Advanced Video Codec
Format profile                           : [email protected]
Format settings, CABAC                   : Yes
Format settings, ReFrames                : 2 frames
Codec ID                                 : V_MPEG4/ISO/AVC
Duration                                 : 2h 23mn
Bit rate                                 : 1 900 Kbps
Width                                    : 1 264 pixels
Height                                   : 528 pixels
Display aspect ratio                     : 2.40:1
Original display aspect ratio            : 2.40:1
Frame rate mode                          : Variable
Frame rate                               : 23.976 fps
Color space                              : YUV
Chroma subsampling                       : 4:2:0
Bit depth                                : 8 bits
Scan type                                : Progressive
Bits/(Pixel*Frame)                       : 0.119
Stream size                              : 1.84 GiB (69%)
Title                                    : MIRCrew
Writing library                          : x264 core 130 r2273
Encoding settings                        : cabac=1 / ref=2 / deblock=1:0:0
Language                                 : Italian
Default                                  : Yes
Forced                                   : No
DURATION                                 : 02:22:56.568000000


Audio #1
ID                                       : 2
Format                                   : AC-3
Format/Info                              : Audio Coding 3
Mode extension                           : CM (complete main)
Codec ID                                 : A_AC3
Duration                                 : 2h 23mn
Bit rate mode                            : Constant
Bit rate                                 : 384 Kbps
Channel(s)                               : 6 channels
Channel positions                        : Front: L C R, Side: L R, LFE
Sampling rate                            : 48.0 KHz
Bit depth                                : 16 bits
Compression mode                         : Lossy
Delay relative to video                  : -5ms
Stream size                              : 393 MiB (14%)
Title                                    : Ita Ac3 5.1
Language                                 : Italian
Default                                  : Yes
Forced                                   : No
DURATION                                 : 02:23:07.072000000

Audio #2
ID                                       : 3
Format                                   : AC-3
Format/Info                              : Audio Coding 3
Mode extension                           : CM (complete main)
Codec ID                                 : A_AC3
Duration                                 : 2h 23mn
Bit rate mode                            : Constant
Bit rate                                 : 384 Kbps
Channel(s)                               : 6 channels
Channel positions                        : Front: L C R, Side: L R, LFE
Sampling rate                            : 48.0 KHz
Bit depth                                : 16 bits
Compression mode                         : Lossy
Delay relative to video                  : -5ms
Stream size                              : 393 MiB (14%)
Title                                    : Eng Ac3 5.1
Language                                 : English
Default                                  : No
Forced                                   : No
DURATION                                 : 02:22:56.544000000


Menu
00:00:00.000                             : :Chapter 01
00:11:08.459                             : :Chapter 02
00:18:18.180                             : :Chapter 03
00:26:28.253                             : :Chapter 04
00:30:08.140                             : :Chapter 05
00:37:37.714                             : :Chapter 06
00:43:58.594                             : :Chapter 07
00:50:53.676                             : :Chapter 08
00:59:38.825                             : :Chapter 09
01:03:36.563                             : :Chapter 10
01:12:32.265                             : :Chapter 11
01:23:02.269                             : :Chapter 12
01:32:45.477                             : :Chapter 13
01:40:51.712                             : :Chapter 14
01:51:08.370                             : :Chapter 15
01:55:44.604                             : :Chapter 16
02:04:37.595                             : :Chapter 17
02:14:58.507                             : :Chapter 18
02:21:45.831                             : :Chapter 19



[/spoiler]





Info: Per scaricare devi usare un client come uTorrent o Transmission
AnnounceURL
udp://tracker.torrent.eu.org:451/announce
Hash 4a46649313ef8b6d9bb90fd537cadf415e5f5e47
Peers seeds: 17 , leech: 6
Size 2.66 GB
Completato 424x
Aggiunto 12.09.21 - 15:09:44
Uploader   robbyrs
Votazione (Voti: 0)


Condividi questo bittorrent:


html/blog:


bbcode/forum:




Aggiungi Commento