* Dettagli Torrent   globale  | Commenti (0) 


- Gunpowder Milkshake (2021) 1080p h264 Ac3 5.1 Ita Eng Sub Ita Eng-MIRCrew -


Download via torrent:
Categoria bittorrent BDRip
Descrizione
Gunpowder Milkshake (2021) 1080p h264 Ac3 5.1 Ita Eng Sub Ita Eng-MIRCrew






NO FOUND ONLY ORIGINAL RELEASE

My release is always in double track audio italian and Original audio
for select it use VLC or dvd player home
not use wmp


Gunpowder Milkshake (2021)

Quality MIRCrew in HD 1080p da 2,7 gb










Regista: Navot Papushado
Genere: Azione, Thriller
Anno: 2021
Paese: Francia, USA, Germania
Durata: 114 min
Sceneggiatura: Ehud Lavski, Navot Papushado
Fotografia: Michael Seresin
Montaggio: Nicolas de Toth
Musiche: Haim Frank Ilfman



Karen Gillan, Lena Headey, Angela Bassett, Carla Gugino, Michelle Yeoh, Chloe Coleman, Paul Giamatti, Freya Allan, Ralph Ineson, Adam Nagaitis, Michael Smiley, Samuel Anderson, Ivan Kaye, Joanna Bobin



Gunpowder Milkshake, film diretto da Navot Papushado, racconta la storia di Sam (Karen Gillan), abbandonata da sua madre Scarlet (Lena Headey) quando aveva solo 12 anni. La donna si trovò costretta a compiere questa scelta a causa del suo lavoro: Scarlet, infatti, è un killer professionista. Durante questi 15 anni un sindacato criminale si è preso cura di Sam, ma ora che è cresciuta la ragazza ha deciso di seguire le orme materne e diventare un sicario.



In her turbulent life as a professional assassin, Scarlet was cruelly forced to abandon her daughter Sam and go on the run. Years later, despite the estrangement, Sam has also grown up into a cold blooded hitwoman


















[spoiler]
General

Complete name                            : Gunpowder Milkshake (2021) 1080p h264 Ac3 5.1 Ita Eng Sub Ita Eng-MIRCrew.mkv
Format                                   : Matroska
Format version                           : Version 2
File size                                : 2.77 GiB
Duration                                 : 1h 54mn
Overall bit rate                         : 3 461 Kbps
Movie name                               : MIRCrew
Encoded date                             : UTC 2021-08-07 14:16:03
Writing application                      : Lavf54.63.100
Writing library                          : Lavf54.63.100
COMMENT                                  : MIRCrew

Video
ID                                       : 1
Format                                   : AVC
Format/Info                              : Advanced Video Codec
Format profile                           : [email protected]
Format settings, CABAC                   : Yes
Format settings, ReFrames                : 2 frames
Codec ID                                 : V_MPEG4/ISO/AVC
Duration                                 : 1h 54mn
Bit rate                                 : 2 600 Kbps
Width                                    : 1 920 pixels
Height                                   : 800 pixels
Display aspect ratio                     : 2.40:1
Frame rate mode                          : Variable
Frame rate                               : 24.000 fps
Color space                              : YUV
Chroma subsampling                       : 4:2:0
Bit depth                                : 8 bits
Scan type                                : Progressive
Bits/(Pixel*Frame)                       : 0.071
Stream size                              : 2.00 GiB (72%)
Title                                    : 1080p
Writing library                          : x264 core 130 r2273
Encoding settings                        : cabac=1 / ref=2 / deblock=1:0:0
Language                                 : Italian
Default                                  : Yes
Forced                                   : No
DURATION                                 : 01:54:45.000000000


Audio #1
ID                                       : 2
Format                                   : AC-3
Format/Info                              : Audio Coding 3
Mode extension                           : CM (complete main)
Codec ID                                 : A_AC3
Duration                                 : 1h 54mn
Bit rate mode                            : Constant
Bit rate                                 : 448 Kbps
Channel(s)                               : 2 channels
Channel positions                        : Front: L R
Sampling rate                            : 48.0 KHz
Bit depth                                : 16 bits
Compression mode                         : Lossy
Delay relative to video                  : 1mn 5s
Stream size                              : 368 MiB (13%)
Title                                    : AC3
Language                                 : Italian
Default                                  : Yes
Forced                                   : No
DURATION                                 : 01:54:45.024000000


Audio #2
ID                                       : 3
Format                                   : AC-3
Format/Info                              : Audio Coding 3
Mode extension                           : CM (complete main)
Codec ID                                 : A_AC3
Duration                                 : 1h 54mn
Bit rate mode                            : Constant
Bit rate                                 : 448 Kbps
Channel(s)                               : 6 channels
Channel positions                        : Front: L C R, Side: L R, LFE
Sampling rate                            : 48.0 KHz
Bit depth                                : 16 bits
Compression mode                         : Lossy
Delay relative to video                  : 1mn 5s
Stream size                              : 368 MiB (13%)
Title                                    : AC3
Language                                 : English
Default                                  : Yes
Forced                                   : No
DURATION                                 : 01:54:45.024000000


Text #1
ID                                       : 4
Format                                   : UTF-8
Codec ID                                 : S_TEXT/UTF8
Codec ID/Info                            : UTF-8 Plain Text
Title                                    : Regular
Language                                 : Italian
Default                                  : No
Forced                                   : No
DURATION                                 : 01:47:37.160000000


Text #2
ID                                       : 5
Format                                   : UTF-8
Codec ID                                 : S_TEXT/UTF8
Codec ID/Info                            : UTF-8 Plain Text
Title                                    : Regular
Language                                 : English
Default                                  : No
Forced                                   : No
DURATION                                 : 01:47:31.240000000



[/spoiler]





Info: Per scaricare devi usare un client come uTorrent o Transmission
AnnounceURL
udp://tracker.torrent.eu.org:451/announce
Hash 4366f56a37a3efcfbfbb9e5fe06732357ab6008b
Peers seeds: 101 , leech: 6
Size 2.77 GB
Completato 3205x
Aggiunto 10.09.21 - 21:09:33
Uploader   robbyrs
Votazione (Voti: 0)


Condividi questo bittorrent:


html/blog:


bbcode/forum:




Aggiungi Commento