* Dettagli Torrent   globale  | Commenti (0) 


- 7.Sconosciuti.A.El.Royale.2018.iTA.ENG.AC3.SUB.iTA.ENG.BluRay.HEVC.1080p.x265.jeddak-MIRCrew -


Download via torrent:
Categoria bittorrent BDRip
Descrizione





7 Sconosciuti A El Royale


Titolo originale: Bad Times At The El Royale
Genere: Thriller
Anno: 2018
Regia: Drew Goddard
Attori: Chris Hemsworth, Dakota Johnson, Jeff Bridges, Nick Offerman, Cailee Spaeny, Jon Hamm, Cynthia Erivo, Lewis Pullman, Manny Jacinto, Mark O'Brien
Paese: USA
Durata: 141 min
Distribuzione: 20th Century Fox Italia
Sceneggiatura: Drew Goddard
Fotografia: Seamus McGarvey
Montaggio: Lisa Lassek
Musiche: Michael Giacchino
Produzione: Twentieth Century Fox



7 sconosciuti a El Royale è un film del 2018 diretto da Drew Goddard. L'hotel El Royale, eretto sul confine tra Colorado e Nevada, è il luogo di'incontro di sette personaggi che dovranno fare i conti con i segreti del proprio passato. L'agente dell'FBI Dwight Broadbeck (Jon Hamm) si trova nell'albergo sotto mentite spoglie con il compito di rimuovere delle attrezzature illegali e scoprire chi le ha piazzate nella struttura. Indagando, Broadbeck scopre l'esistenza di alcuni passaggi segreti che attraversano l'hotel e che conducono ad un corridoio, dal quale qualcuno utilizza una cinepresa per spiare gli ospiti. Poco dopo, l'uomo assiste al rapimento della hippie Emily Summerspring (Dakota Johnson) ma riceve l'ordine di non intervenire. Nel frattempo, dopo aver tentato di drogare Darlene (Cynthia Erivo), il prete cattolico Daniel Flynn (Jeff Bridges) ha un interessante incontro con l'impiegato Miles Miller (Lewis Pullman), che gli rivela l'esistenza del passaggio segreto. Miller, incaricato dai suoi superiori di spiare gli ospiti, è entrato in possesso di una pellicola particolarmente interessante, che potrebbe utilizzare per ricattare un personaggio di spicco della comunità. Volendo aiutare Emily, l'agente tenta di salvarla ma scopre che la ragazza è stata sostituita da sua sorella Rose (Cailee Spaeny). Intanto, Darlene fa una scoperta sconcertante sull'indentità di Flynn e decide di collaborare con l'uomo. Nel confusionario vortice sincopato di inaspettati risolti, sta per inserirsi il sadico Billy Lee (Chris Hemsworth), chiamato da Rose al El Royale...




















General
Unique ID                   : 239866593807200908067954339491958309692 (0xB474A0252B20B8C790C19693FBF9433C)
Complete name               : 7.Sconosciuti.A.El.Royale.2018.iTA.ENG.AC3.SUB.iTA.ENG.BluRay.HEVC.1080p.x265.jeddak-MIRCrew.mkv
Format                      : Matroska
Format version              : Version 2
File size                   : 2.98 GiB
Duration                    : 2 h 21 min
Overall bit rate            : 3 016 kb/s
Movie name                  : 7.Sconosciuti.A.El.Royale.2018.iTA.ENG.AC3.SUB.iTA.ENG.BluRay.HEVC.1080p.x265.jeddak-MIRCrew
Encoded date                : UTC 2021-07-22 06:40:56
Writing application         : mkvmerge v5.6.0 ( 'Kenya Kane' ) built on May 27 2012 16:44:04
Writing library             : libebml v1.2.3 + libmatroska v1.3.0 / Lavf58.29.100

Video
ID                          : 1
Format                      : HEVC
Format/Info                 : High Efficiency Video Coding
Format profile              : [email protected]@Main
Codec ID                    : V_MPEGH/ISO/HEVC
Duration                    : 2 h 21 min
Bit rate                    : 2 060 kb/s
Width                       : 1 920 pixels
Height                      : 804 pixels
Display aspect ratio        : 2.40:1
Frame rate mode             : Constant
Frame rate                  : 23.976 (24000/1001) FPS
Color space                 : YUV
Chroma subsampling          : 4:2:0
Bit depth                   : 8 bits
Bits/(Pixel*Frame)          : 0.056
Stream size                 : 2.04 GiB (68%)
Title                       : ...::: jeddak MIRCrew :::...
Writing library             : x265 3.2.1+1-b5c86a64bbbe:[Linux][GCC 9.2.0][64 bit] 8bit+10bit+12bit
Encoding settings           : cpuid=1111039 / frame-threads=5 / wpp / no-pmode / no-pme / no-psnr / no-ssim / log-level=2 / input-csp=1 / input-res=1920x804 / interlace=0 / total-frames=0 / level-idc=40 / high-tier=1 / uhd-bd=0 / ref=3 / no-allow-non-conformance / no-repeat-headers / annexb / no-aud / no-hrd / info / hash=0 / no-temporal-layers / open-gop / min-keyint=24 / keyint=240 / gop-lookahead=0 / bframes=4 / b-adapt=2 / b-pyramid / bframe-bias=0 / rc-lookahead=20 / lookahead-slices=5 / scenecut=40 / radl=0 / no-splice / no-intra-refresh / ctu=64 / min-cu-size=8 / no-rect / no-amp / max-tu-size=32 / tu-inter-depth=1 / tu-intra-depth=1 / limit-tu=0 / rdoq-level=0 / dynamic-rd=0.00 / no-ssim-rd / signhide / no-tskip / nr-intra=0 / nr-inter=0 / no-constrained-intra / strong-intra-smoothing / max-merge=3 / limit-refs=1 / no-limit-modes / me=1 / subme=2 / merange=57 / temporal-mvp / no-hme / weightp / no-weightb / no-analyze-src-pics / deblock=0:0 / sao / no-sao-non-deblock / rd=3 / selective-sao=4 / early-skip / rskip / no-fast-intra / no-tskip-fast / no-cu-lossless / b-intra / no-splitrd-skip / rdpenalty=0 / psy-rd=2.00 / psy-rdoq=0.00 / no-rd-refine / no-lossless / cbqpoffs=0 / crqpoffs=0 / rc=abr / bitrate=2100 / qcomp=0.60 / qpstep=4 / stats-write=0 / stats-read=0 / ipratio=1.40 / pbratio=1.30 / aq-mode=2 / aq-strength=1.00 / cutree / zone-count=0 / no-strict-cbr / qg-size=32 / no-rc-grain / qpmax=69 / qpmin=0 / no-const-vbv / sar=1 / overscan=0 / videoformat=5 / range=0 / colorprim=1 / transfer=1 / colormatrix=1 / chromaloc=0 / display-window=0 / cll=0,0 / min-luma=0 / max-luma=255 / log2-max-poc-lsb=8 / vui-timing-info / vui-hrd-info / slices=1 / no-opt-qp-pps / no-opt-ref-list-length-pps / no-multi-pass-opt-rps / scenecut-bias=0.05 / no-opt-cu-delta-qp / no-aq-motion / no-hdr / no-hdr-opt / no-dhdr10-opt / no-idr-recovery-sei / analysis-reuse-level=5 / scale-factor=0 / refine-intra=0 / refine-inter=0 / refine-mv=1 / refine-ctu-distortion=0 / no-limit-sao / ctu-info=0 / no-lowpass-dct / refine-analysis-type=0 / copy-pic=1 / max-ausize-factor=1.0 / no-dynamic-refine / no-single-sei / no-hevc-aq / no-svt / no-field / qp-adaptation-range=1.00
Default                     : Yes
Forced                      : No
Color range                 : Limited
Color primaries             : BT.709
Transfer characteristics    : BT.709
Matrix coefficients         : BT.709
Duration_Source             : General_Duration

Audio #1
ID                          : 2
Format                      : AC-3
Format/Info                 : Audio Coding 3
Commercial name             : Dolby Digital
Codec ID                    : A_AC3
Duration                    : 2 h 21 min
Bit rate mode               : Constant
Bit rate                    : 448 kb/s
Channel(s)                  : 6 channels
Channel layout              : L R C LFE Ls Rs
Sampling rate               : 48.0 kHz
Frame rate                  : 31.250 FPS (1536 SPF)
Compression mode            : Lossy
Delay relative to video     : -5 ms
Stream size                 : 454 MiB (15%)
Title                       : iTA AC3 5.1
Language                    : Italian
Service kind                : Complete Main
Default                     : Yes
Forced                      : No

Audio #2
ID                          : 3
Format                      : AC-3
Format/Info                 : Audio Coding 3
Commercial name             : Dolby Digital
Codec ID                    : A_AC3
Duration                    : 2 h 21 min
Bit rate mode               : Constant
Bit rate                    : 448 kb/s
Channel(s)                  : 6 channels
Channel layout              : L R C LFE Ls Rs
Sampling rate               : 48.0 kHz
Frame rate                  : 31.250 FPS (1536 SPF)
Compression mode            : Lossy
Delay relative to video     : -5 ms
Stream size                 : 454 MiB (15%)
Title                       : ENG AC3 5.1
Language                    : English
Service kind                : Complete Main
Default                     : No
Forced                      : No

Text #1
ID                          : 4
Format                      : PGS
Muxing mode                 : zlib
Codec ID                    : S_HDMV/PGS
Codec ID/Info               : Picture based subtitle format used on BDs/HD-DVDs
Duration                    : 2 h 21 min
Title                       : iTA FORCED - PGS
Language                    : Italian
Default                     : Yes
Forced                      : Yes

Text #2
ID                          : 5
Format                      : UTF-8
Codec ID                    : S_TEXT/UTF8
Codec ID/Info               : UTF-8 Plain Text
Title                       : iTA FORCED - SRT
Language                    : Italian
Default                     : No
Forced                      : Yes

Text #3
ID                          : 6
Format                      : PGS
Muxing mode                 : zlib
Codec ID                    : S_HDMV/PGS
Codec ID/Info               : Picture based subtitle format used on BDs/HD-DVDs
Duration                    : 2 h 21 min
Title                       : iTA REGULAR - PGS
Language                    : Italian
Default                     : No
Forced                      : No

Text #4
ID                          : 7
Format                      : UTF-8
Codec ID                    : S_TEXT/UTF8
Codec ID/Info               : UTF-8 Plain Text
Title                       : iTA REGULAR - SRT
Language                    : Italian
Default                     : No
Forced                      : No

Text #5
ID                          : 8
Format                      : PGS
Muxing mode                 : zlib
Codec ID                    : S_HDMV/PGS
Codec ID/Info               : Picture based subtitle format used on BDs/HD-DVDs
Duration                    : 2 h 18 min
Title                       : ENG NON UDENTI - PGS
Language                    : English
Default                     : No
Forced                      : No

Text #6
ID                          : 9
Format                      : UTF-8
Codec ID                    : S_TEXT/UTF8
Codec ID/Info               : UTF-8 Plain Text
Title                       : ENG NON UDENTI - SRT
Language                    : English
Default                     : No
Forced                      : No

Menu
00:00:00.000                : :Capitolo 01
00:04:19.593                : :Capitolo 02
00:19:21.994                : :Capitolo 03
00:34:31.778                : :Capitolo 04
00:49:24.712                : :Capitolo 05
00:51:19.868                : :Capitolo 06
01:16:01.474                : :Capitolo 07
01:37:13.369                : :Capitolo 08
02:03:56.721                : :Capitolo 09
02:14:09.041                : :Capitolo 10
02:15:45.429                : :Capitolo 11
Info: Per scaricare devi usare un client come uTorrent o Transmission
AnnounceURL
udp://tracker.torrent.eu.org:451/announce
Hash 03f00903ce7923ac7d0ff3879d9a9195f3f92fa9
Peers seeds: 31 , leech: 6
Size 2.98 GB
Completato 1123x
Aggiunto 22.07.21 - 11:07:57
Uploader   jeddak1
Votazione (Voti: 0)


Condividi questo bittorrent:


html/blog:


bbcode/forum:




Aggiungi Commento