* Dettagli Torrent   globale  | Commenti (0) 


- Nomadland.2020.iTA.ENG.AC3.SUB.iTA.ENG.BluRay.HEVC.1080p.x265.jeddak-MIRCrew -


Download via torrent:
Categoria bittorrent BDRip
Descrizione





Nomadland


Titolo originale: Nomadland
Genere: Drammatico
Anno: 2020
Regia: Chloé Zhao
Attori: Frances McDormand, David Strathairn, Gay DeForest, Patricia Grier, Linda May, Bob Wells, Charlene Swankie, Angela Reyes, Carl R. Hughes, Douglas G. Soul
Paese: USA
Durata: 108 min
Distribuzione: The Walt Disney Company Italia
Sceneggiatura: Chloé Zhao
Fotografia: Joshua James Richards
Montaggio: Chloé Zhao
Musiche: Ludovico Einaudi
Produzione: Cor Cordium Productions, Hear/Say Productions, Highwayman Films



Nomadland, film diretto da Chloé Zhao, racconta la storia di Fern (Frances McDormand), una donna sulla sessantina del Nevada, che - a seguito del crollo economico, dovuto alla Grande Recessione - ha perso il suo impiego presso l'azienda nella quale lavorava. Ora si trova senza lavoro e sola, dato che suo marito è morto di recente. In questa situazione che apparirebbe tragica per chiunque, la donna decide di compiere un gesto inaspettato: vendere tutto ciò che ha per comprare un furgone e tentare la vita on the road, alla ricerca di un lavoro. Con i bagagli in spalla, Fern si mette in viaggio verso gli stati occidentali, determinata a vivere come una nomade dei nostri giorni, al di fuori della attuale società e delle convenzioni odierne.
Durante il tragitto, Fern incontra altri nomadi, con i quale condivide diversi momenti, le loro storie personali e i consigli per vivere in strada. È grazie a questa compagnia che la donna riesce ad aprirsi e raccontarsi, pronta finalmente ad affrontare il presente che sembra km dopo km soltanto un passato prossimo.





















General
Unique ID                   : 202587484056998657138696082995234857062 (0x9868EE20F454E09ABF4A7697CBB1E066)
Complete name               : Nomadland.2020.iTA.ENG.AC3.SUB.iTA.ENG.BluRay.HEVC.1080p.x265.jeddak-MIRCrew.mkv
Format                      : Matroska
Format version              : Version 2
File size                   : 2.26 GiB
Duration                    : 1 h 47 min
Overall bit rate            : 3 003 kb/s
Movie name                  : Nomadland.2020.iTA.ENG.AC3.SUB.iTA.ENG.BluRay.HEVC.1080p.x265.jeddak-MIRCrew
Encoded date                : UTC 2021-07-19 16:47:42
Writing application         : mkvmerge v5.6.0 ( 'Kenya Kane' ) built on May 27 2012 16:44:04
Writing library             : libebml v1.2.3 + libmatroska v1.3.0 / Lavf58.29.100

Video
ID                          : 1
Format                      : HEVC
Format/Info                 : High Efficiency Video Coding
Format profile              : [email protected]@Main
Codec ID                    : V_MPEGH/ISO/HEVC
Duration                    : 1 h 47 min
Bit rate                    : 2 048 kb/s
Width                       : 1 920 pixels
Height                      : 804 pixels
Display aspect ratio        : 2.40:1
Frame rate mode             : Constant
Frame rate                  : 23.976 (24000/1001) FPS
Color space                 : YUV
Chroma subsampling          : 4:2:0
Bit depth                   : 8 bits
Bits/(Pixel*Frame)          : 0.055
Stream size                 : 1.54 GiB (68%)
Title                       : ...::: jeddak MIRCrew :::...
Writing library             : x265 3.2.1+1-b5c86a64bbbe:[Linux][GCC 9.2.0][64 bit] 8bit+10bit+12bit
Encoding settings           : cpuid=1111039 / frame-threads=5 / wpp / no-pmode / no-pme / no-psnr / no-ssim / log-level=2 / input-csp=1 / input-res=1920x804 / interlace=0 / total-frames=0 / level-idc=40 / high-tier=1 / uhd-bd=0 / ref=3 / no-allow-non-conformance / no-repeat-headers / annexb / no-aud / no-hrd / info / hash=0 / no-temporal-layers / open-gop / min-keyint=24 / keyint=240 / gop-lookahead=0 / bframes=4 / b-adapt=2 / b-pyramid / bframe-bias=0 / rc-lookahead=20 / lookahead-slices=5 / scenecut=40 / radl=0 / no-splice / no-intra-refresh / ctu=64 / min-cu-size=8 / no-rect / no-amp / max-tu-size=32 / tu-inter-depth=1 / tu-intra-depth=1 / limit-tu=0 / rdoq-level=0 / dynamic-rd=0.00 / no-ssim-rd / signhide / no-tskip / nr-intra=0 / nr-inter=0 / no-constrained-intra / strong-intra-smoothing / max-merge=3 / limit-refs=1 / no-limit-modes / me=1 / subme=2 / merange=57 / temporal-mvp / no-hme / weightp / no-weightb / no-analyze-src-pics / deblock=0:0 / sao / no-sao-non-deblock / rd=3 / selective-sao=4 / early-skip / rskip / no-fast-intra / no-tskip-fast / no-cu-lossless / b-intra / no-splitrd-skip / rdpenalty=0 / psy-rd=2.00 / psy-rdoq=0.00 / no-rd-refine / no-lossless / cbqpoffs=0 / crqpoffs=0 / rc=abr / bitrate=2100 / qcomp=0.60 / qpstep=4 / stats-write=0 / stats-read=0 / ipratio=1.40 / pbratio=1.30 / aq-mode=2 / aq-strength=1.00 / cutree / zone-count=0 / no-strict-cbr / qg-size=32 / no-rc-grain / qpmax=69 / qpmin=0 / no-const-vbv / sar=1 / overscan=0 / videoformat=5 / range=0 / colorprim=1 / transfer=1 / colormatrix=1 / chromaloc=0 / display-window=0 / cll=0,0 / min-luma=0 / max-luma=255 / log2-max-poc-lsb=8 / vui-timing-info / vui-hrd-info / slices=1 / no-opt-qp-pps / no-opt-ref-list-length-pps / no-multi-pass-opt-rps / scenecut-bias=0.05 / no-opt-cu-delta-qp / no-aq-motion / no-hdr / no-hdr-opt / no-dhdr10-opt / no-idr-recovery-sei / analysis-reuse-level=5 / scale-factor=0 / refine-intra=0 / refine-inter=0 / refine-mv=1 / refine-ctu-distortion=0 / no-limit-sao / ctu-info=0 / no-lowpass-dct / refine-analysis-type=0 / copy-pic=1 / max-ausize-factor=1.0 / no-dynamic-refine / no-single-sei / no-hevc-aq / no-svt / no-field / qp-adaptation-range=1.00
Default                     : Yes
Forced                      : No
Color range                 : Limited
Color primaries             : BT.709
Transfer characteristics    : BT.709
Matrix coefficients         : BT.709
Duration_Source             : General_Duration

Audio #1
ID                          : 2
Format                      : AC-3
Format/Info                 : Audio Coding 3
Commercial name             : Dolby Digital
Codec ID                    : A_AC3
Duration                    : 1 h 47 min
Bit rate mode               : Constant
Bit rate                    : 448 kb/s
Channel(s)                  : 6 channels
Channel layout              : L R C LFE Ls Rs
Sampling rate               : 48.0 kHz
Frame rate                  : 31.250 FPS (1536 SPF)
Compression mode            : Lossy
Delay relative to video     : 18 ms
Stream size                 : 345 MiB (15%)
Title                       : iTA AC3 5.1
Language                    : Italian
Service kind                : Complete Main
Default                     : Yes
Forced                      : No

Audio #2
ID                          : 3
Format                      : AC-3
Format/Info                 : Audio Coding 3
Commercial name             : Dolby Digital
Codec ID                    : A_AC3
Duration                    : 1 h 47 min
Bit rate mode               : Constant
Bit rate                    : 448 kb/s
Channel(s)                  : 6 channels
Channel layout              : L R C LFE Ls Rs
Sampling rate               : 48.0 kHz
Frame rate                  : 31.250 FPS (1536 SPF)
Compression mode            : Lossy
Delay relative to video     : -5 ms
Stream size                 : 345 MiB (15%)
Title                       : ENG AC3 5.1
Language                    : English
Service kind                : Complete Main
Default                     : No
Forced                      : No

Text #1
ID                          : 4
Format                      : PGS
Muxing mode                 : zlib
Codec ID                    : S_HDMV/PGS
Codec ID/Info               : Picture based subtitle format used on BDs/HD-DVDs
Duration                    : 1 h 43 min
Title                       : iTA FORCED - PGS
Language                    : Italian
Default                     : No
Forced                      : Yes

Text #2
ID                          : 5
Format                      : UTF-8
Codec ID                    : S_TEXT/UTF8
Codec ID/Info               : UTF-8 Plain Text
Title                       : iTA FORCED - SRT
Language                    : Italian
Default                     : Yes
Forced                      : Yes

Text #3
ID                          : 6
Format                      : PGS
Muxing mode                 : zlib
Codec ID                    : S_HDMV/PGS
Codec ID/Info               : Picture based subtitle format used on BDs/HD-DVDs
Duration                    : 1 h 47 min
Title                       : iTA REGULAR - PGS
Language                    : Italian
Default                     : No
Forced                      : No

Text #4
ID                          : 7
Format                      : UTF-8
Codec ID                    : S_TEXT/UTF8
Codec ID/Info               : UTF-8 Plain Text
Title                       : iTA REGULAR - SRT
Language                    : Italian
Default                     : No
Forced                      : No

Text #5
ID                          : 8
Format                      : PGS
Muxing mode                 : zlib
Codec ID                    : S_HDMV/PGS
Codec ID/Info               : Picture based subtitle format used on BDs/HD-DVDs
Duration                    : 1 h 47 min
Title                       : ENG NON UDENTI - PGS
Language                    : English
Default                     : No
Forced                      : No

Text #6
ID                          : 9
Format                      : UTF-8
Codec ID                    : S_TEXT/UTF8
Codec ID/Info               : UTF-8 Plain Text
Title                       : ENG NON UDENTI - SRT
Language                    : English
Default                     : No
Forced                      : No

Menu
00:00:00.000                : :Capitolo 01
00:05:04.346                : :Capitolo 02
00:10:44.227                : :Capitolo 03
00:15:00.108                : :Capitolo 04
00:22:01.570                : :Capitolo 05
00:26:41.975                : :Capitolo 06
00:29:57.629                : :Capitolo 07
00:35:22.162                : :Capitolo 08
00:44:45.474                : :Capitolo 09
00:51:35.426                : :Capitolo 10
00:58:16.118                : :Capitolo 11
01:04:35.538                : :Capitolo 12
01:11:40.588                : :Capitolo 13
01:17:06.372                : :Capitolo 14
01:22:14.763                : :Capitolo 15
01:31:40.078                : :Capitolo 16
01:38:30.613                : :Capitolo 17
01:43:16.607                : :Capitolo 18
Info: Per scaricare devi usare un client come uTorrent o Transmission
AnnounceURL
udp://tracker.torrent.eu.org:451/announce
Hash b894964dd868f95d605a3f6abe25f6657bf48dcb
Peers seeds: 48 , leech: 10
Size 2.26 GB
Completato 1206x
Aggiunto 20.07.21 - 17:07:56
Uploader   jeddak1
Votazione (Voti: 0)


Condividi questo bittorrent:


html/blog:


bbcode/forum:




Aggiungi Commento