* Dettagli Torrent   globale  | Commenti (0) 


- Il gatto a nove code - The Cat o Nine Tails (1971) 1080p h264 Ac3 Ita Eng Sub Eng Spa Fre - MIRCrew -


Download via torrent:
Categoria bittorrent BDRip
Descrizione
Il gatto a nove code - The Cat o Nine Tails (1971) 1080p h264 Ac3 Ita Eng Sub Eng Spa Fre - MIRCrew



NO FOUND ONLY ORIGINAL RELEASE


My release is always in double track audio italian and Original audio
for select it use VLC or dvd player home
not use wmp

Il gatto a nove code - The Cat o Nine Tails (1971)

Quality MIRCrew on HD 1080p da 2,3 gb








 

Paese di produzione Italia, Francia, Germania Ovest
Anno 1971
Durata 107 minuti
Rapporto 2,35:1
Genere thriller, giallo
Regia Dario Argento
Soggetto Dario Argento, Luigi Cozzi, Dardano Sacchetti
Sceneggiatura Dario Argento



James Franciscus: Carlo Giordani
Karl Malden: Franco Arnò
Catherine Spaak: Anna Terzi
Aldo Reggiani: dott. Casoni
Tino Carraro: prof. Fulvio Terzi
Pier Paolo Capponi: comm. Spimi
Horst Frank: dott. Braun
Rada Rassimov: Bianca Merusi
Carlo Alighiero: dott. Calabresi
Cinzia De Carolis: Lori Arnò
Tom Felleghy: dott. Esson
Emilio Marchesini: dott. Morbelli
Corrado Olmi: Morsella
Vittorio Congia: fotografo Righetto
Ugo Fangareggi: Gigi "Scalogna"
Fulvio Mingozzi: uomo del commissario
Pino Patti: barbiere
Umberto Raho: ex amante di Manuel
Jacques Stany: prof. Manera
Stefano Oppedisano: taxista
Ada Pometti: operatrice telefonica
Marie Louise Zetha (Marie Louise Sinclair): attrice alla stazione
Werner Pochath: Manuel
Dario Argento: mani dell'assassino
Margherita Horowitz: baby sitter di Lori



Il giornalista Carlo Giordani e l'anziano enigmista cieco Franco Arnò indagano sulla strana morte del dott. Calabresi, un genetista morto in un misterioso incidente alla stazione ferroviaria. La morte, infatti, sembra legata al mistero riguardante un'infiltrazione nell'istituto dove Calabresi lavorava, dove qualcuno era penetrato di notte, apparentemente senza rubare nulla



A newspaper reporter and a retired, blind journalist try to solve a series of killings connected to a pharmaceutical company's experimental, top-secret research projects and in so doing, both become targets of the killer.

 









General

Complete name                            : Il gatto a nove code (1971) 1080p h264 Ac3 Ita Eng Sub Eng Spa Fre - MIRCrew.mkv
Format                                   : Matroska
Format version                           : Version 2
File size                                : 2.34 GiB
Duration                                 : 1h 51mn
Overall bit rate                         : 2 994 Kbps
Movie name                               : MIRCrew
Encoded date                             : UTC 2021-06-05 07:06:33
Writing application                      : mkvmerge v5.8.0 ('No Sleep / Pillow&#39 built on Sep  2 2012 15:37:04
Writing library                          : Lavf54.63.100
COMMENT                                  : MIRCrew

Video
ID                                       : 1
Format                                   : AVC
Format/Info                              : Advanced Video Codec
Format profile                           : [email protected]
Format settings, CABAC                   : Yes
Format settings, ReFrames                : 2 frames
Codec ID                                 : V_MPEG4/ISO/AVC
Duration                                 : 1h 51mn
Bit rate                                 : 2 600 Kbps
Width                                    : 1 920 pixels
Height                                   : 816 pixels
Display aspect ratio                     : 2.35:1
Original display aspect ratio            : 2.35:1
Frame rate mode                          : Variable
Frame rate                               : 23.976 fps
Color space                              : YUV
Chroma subsampling                       : 4:2:0
Bit depth                                : 8 bits
Scan type                                : Progressive
Bits/(Pixel*Frame)                       : 0.069
Stream size                              : 1.99 GiB (85%)
Title                                    : MIRCrew
Writing library                          : x264 core 130 r2273
Encoding settings                        : cabac=1 / ref=2 / deblock=1:0:0 /
Language                                 : Italian
Default                                  : Yes
Forced                                   : No

Audio #1
ID                                       : 2
Format                                   : AC-3
Format/Info                              : Audio Coding 3
Mode extension                           : CM (complete main)
Codec ID                                 : A_AC3
Duration                                 : 1h 51mn
Bit rate mode                            : Constant
Bit rate                                 : 192 Kbps
Channel(s)                               : 2 channels
Channel positions                        : Front: L R
Sampling rate                            : 48.0 KHz
Bit depth                                : 16 bits
Compression mode                         : Lossy
Delay relative to video                  : -5ms
Stream size                              : 153 MiB (6%)
Title                                    : Ita Ac3 2.0
Language                                 : Italian
Default                                  : Yes
Forced                                   : No

Audio #2
ID                                       : 3
Format                                   : AC-3
Format/Info                              : Audio Coding 3
Mode extension                           : CM (complete main)
Codec ID                                 : A_AC3
Duration                                 : 1h 51mn
Bit rate mode                            : Constant
Bit rate                                 : 192 Kbps
Channel(s)                               : 2 channels
Channel positions                        : Front: L R
Sampling rate                            : 48.0 KHz
Bit depth                                : 16 bits
Compression mode                         : Lossy
Delay relative to video                  : -5ms
Stream size                              : 153 MiB (6%)
Title                                    : Eng Ac3 2.0
Language                                 : English
Default                                  : No
Forced                                   : No

Text #1
ID                                       : 4
Format                                   : VobSub
Muxing mode                              : zlib
Codec ID                                 : S_VOBSUB
Codec ID/Info                            : The same subtitle format used on DVDs
Title                                    : Sub Eng
Language                                 : English
Default                                  : No
Forced                                   : No

Text #2
ID                                       : 5
Format                                   : VobSub
Muxing mode                              : zlib
Codec ID                                 : S_VOBSUB
Codec ID/Info                            : The same subtitle format used on DVDs
Title                                    : Sub Esp
Language                                 : Spanish
Default                                  : No
Forced                                   : No

Text #3
ID                                       : 6
Format                                   : VobSub
Muxing mode                              : zlib
Codec ID                                 : S_VOBSUB
Codec ID/Info                            : The same subtitle format used on DVDs
Title                                    : Sub Fre
Language                                 : French
Default                                  : No
Forced                                   : No

Menu
00:00:00.000                             : :01
00:01:14.992                             : :02
00:08:41.104                             : :03
00:11:45.997                             : :04
00:18:14.969                             : :05
00:25:40.247                             : :06
00:31:42.943                             : :07
00:35:34.341                             : :08
00:39:00.505                             : :09
00:43:15.927                             : :10
00:47:30.056                             : :11
00:54:25.512                             : :12
00:59:36.031                             : :13
01:07:15.657                             : :14
01:14:31.300                             : :15
01:21:05.444                             : :16
01:30:36.556                             : :17
01:34:43.803                             : :18
01:41:27.748                             : :19
01:44:02.194                             : :20
01:50:34.378                             : :21




Info: Per scaricare devi usare un client come uTorrent o Transmission
AnnounceURL
udp://tracker.torrent.eu.org:451/announce
Hash 7565b30f4abd859f540bc9d77aeacaa8695e8e88
Peers seeds: 15 , leech: 0
Size 2.34 GB
Completato 642x
Aggiunto 07.06.21 - 12:06:00
Uploader   robbyrs
Votazione (Voti: 0)


Condividi questo bittorrent:


html/blog:


bbcode/forum:




Aggiungi Commento