* Dettagli Torrent   globale  | Commenti (0) 


- Maria.Regina.Di.Scozia.2018.iTA.ENG.AC3.SUB.iTA.ENG.BluRay.HEVC.1080p.x265.jeddak-MIRCrew -


Download via torrent:
Categoria bittorrent BDRip
Descrizione





Maria Regina Di Scozia


Titolo originale: Mary Queen of Scots
Genere: Biografico, Drammatico, Storico
Anno: 2018
Regia: Josie Rourke
Attori: Margot Robbie, Saoirse Ronan, Jack Lowden, David Tennant, Gemma Chan, Guy Pearce, Brendan Coyle, Martin Compston
Paese: Gran Bretagna
Durata: 125 min
Distribuzione: Universal Pictures
Sceneggiatura: Beau Willimon
Fotografia: John Mathieson
Montaggio: Chris Dickens
Musiche: Max Richter
Produzione: Focus Features, Working Title Films



Maria regina di Scozia è un film del 2018 diretto da Josie Rourke. Nel 1561 la cattolica Maria Stuarda (Saoirse Ronan), rimasta vedova, torna in Scozia con l’intenzione di reclamare il trono d’Inghilterra scalzando sua cugina, la protestante Elisabetta I (Margot Robbie). Quest’ultima, infatti, rifiuta di sposarsi e l’assenza di un erede compromette la sua stabilità sul trono. Sebbene sia malvista dal Consiglio Scozzese, Maria rimane l’unica in grado di pretendere legittimamente la corona. Per sancire l’unione tra Scozia ed Inghilterra, assicurandosi la permanenza al potere, Elisabetta invita sua cugina a sposare un nobile inglese e invia presso la sua corte Robert Dudley (Joe Alwyn), il suo amante.
Maria, tuttavia, rifiuta l'accordo. Elisabetta, sopravvissuta al vaiolo che ha seriamente compromesso la sua salute, decide allora di proporre a sua cugina Lord Henry Darnley (Jack Lowden). Sebbene sia cosciente che Darnley mira al potere, Maria non riesce a resistere al suo fascino e accetta le nozze. La scoperta del grande segreto di suo marito segnerà una svolta per Maria, che comunque non perderà di vista l'obiettivo della corona e darà alla luce una erede. Nel frattempo, Giacomo fratellastro di Maria si allea prima con i ribelli poi con il Consiglio per deporre la sovrana e reclamare il trono d’Inghilterra. Dopo un intrigo di palazzo, Maria fugge e trova asilo presso Elisabetta. In una casa sperduta in mezzo alla campagna, lontano dagli occhi indiscreti, le due avranno un confronto toccante e sincero che porterà alla luce le privazioni e il coraggio che una donna è costretta a sopportare per portare una corona che le spetta per diritto di nascita…





















General
Unique ID                   : 220647770142741446927521312472836183785 (0xA5FF36FB096C854D91EA1669CB3D96E9)
Complete name               : Maria.Regina.Di.Scozia.2018.iTA.ENG.AC3.SUB.iTA.ENG.BluRay.HEVC.1080p.x265.jeddak-MIRCrew.mkv
Format                      : Matroska
Format version              : Version 2
File size                   : 2.75 GiB
Duration                    : 2 h 4 min
Overall bit rate            : 3 168 kb/s
Movie name                  : Maria.Regina.Di.Scozia.2018.iTA.ENG.AC3.SUB.iTA.ENG.BluRay.HEVC.1080p.x265.jeddak-MIRCrew
Encoded date                : UTC 2021-06-07 06:55:16
Writing application         : mkvmerge v5.6.0 ( 'Kenya Kane' ) built on May 27 2012 16:44:04
Writing library             : libebml v1.2.3 + libmatroska v1.3.0 / Lavf58.29.100

Video
ID                          : 1
Format                      : HEVC
Format/Info                 : High Efficiency Video Coding
Format profile              : [email protected]@Main
Codec ID                    : V_MPEGH/ISO/HEVC
Duration                    : 2 h 4 min
Bit rate                    : 2 209 kb/s
Width                       : 1 920 pixels
Height                      : 804 pixels
Display aspect ratio        : 2.40:1
Frame rate mode             : Constant
Frame rate                  : 23.976 (24000/1001) FPS
Color space                 : YUV
Chroma subsampling          : 4:2:0
Bit depth                   : 8 bits
Bits/(Pixel*Frame)          : 0.060
Stream size                 : 1.92 GiB (70%)
Title                       : ...::: jeddak MIRCrew :::...
Writing library             : x265 3.2.1+1-b5c86a64bbbe:[Linux][GCC 9.2.0][64 bit] 8bit+10bit+12bit
Encoding settings           : cpuid=1111039 / frame-threads=5 / wpp / no-pmode / no-pme / no-psnr / no-ssim / log-level=2 / input-csp=1 / input-res=1920x804 / interlace=0 / total-frames=0 / level-idc=40 / high-tier=1 / uhd-bd=0 / ref=3 / no-allow-non-conformance / no-repeat-headers / annexb / no-aud / no-hrd / info / hash=0 / no-temporal-layers / open-gop / min-keyint=24 / keyint=240 / gop-lookahead=0 / bframes=4 / b-adapt=2 / b-pyramid / bframe-bias=0 / rc-lookahead=20 / lookahead-slices=5 / scenecut=40 / radl=0 / no-splice / no-intra-refresh / ctu=64 / min-cu-size=8 / no-rect / no-amp / max-tu-size=32 / tu-inter-depth=1 / tu-intra-depth=1 / limit-tu=0 / rdoq-level=0 / dynamic-rd=0.00 / no-ssim-rd / signhide / no-tskip / nr-intra=0 / nr-inter=0 / no-constrained-intra / strong-intra-smoothing / max-merge=3 / limit-refs=1 / no-limit-modes / me=1 / subme=2 / merange=57 / temporal-mvp / no-hme / weightp / no-weightb / no-analyze-src-pics / deblock=0:0 / sao / no-sao-non-deblock / rd=3 / selective-sao=4 / early-skip / rskip / no-fast-intra / no-tskip-fast / no-cu-lossless / b-intra / no-splitrd-skip / rdpenalty=0 / psy-rd=2.00 / psy-rdoq=0.00 / no-rd-refine / no-lossless / cbqpoffs=0 / crqpoffs=0 / rc=abr / bitrate=2250 / qcomp=0.60 / qpstep=4 / stats-write=0 / stats-read=0 / ipratio=1.40 / pbratio=1.30 / aq-mode=2 / aq-strength=1.00 / cutree / zone-count=0 / no-strict-cbr / qg-size=32 / no-rc-grain / qpmax=69 / qpmin=0 / no-const-vbv / sar=1 / overscan=0 / videoformat=5 / range=0 / colorprim=1 / transfer=1 / colormatrix=1 / chromaloc=0 / display-window=0 / cll=0,0 / min-luma=0 / max-luma=255 / log2-max-poc-lsb=8 / vui-timing-info / vui-hrd-info / slices=1 / no-opt-qp-pps / no-opt-ref-list-length-pps / no-multi-pass-opt-rps / scenecut-bias=0.05 / no-opt-cu-delta-qp / no-aq-motion / no-hdr / no-hdr-opt / no-dhdr10-opt / no-idr-recovery-sei / analysis-reuse-level=5 / scale-factor=0 / refine-intra=0 / refine-inter=0 / refine-mv=1 / refine-ctu-distortion=0 / no-limit-sao / ctu-info=0 / no-lowpass-dct / refine-analysis-type=0 / copy-pic=1 / max-ausize-factor=1.0 / no-dynamic-refine / no-single-sei / no-hevc-aq / no-svt / no-field / qp-adaptation-range=1.00
Default                     : Yes
Forced                      : No
Color range                 : Limited
Color primaries             : BT.709
Transfer characteristics    : BT.709
Matrix coefficients         : BT.709
Duration_Source             : General_Duration

Audio #1
ID                          : 2
Format                      : AC-3
Format/Info                 : Audio Coding 3
Commercial name             : Dolby Digital
Codec ID                    : A_AC3
Duration                    : 2 h 4 min
Bit rate mode               : Constant
Bit rate                    : 448 kb/s
Channel(s)                  : 6 channels
Channel layout              : L R C LFE Ls Rs
Sampling rate               : 48.0 kHz
Frame rate                  : 31.250 FPS (1536 SPF)
Compression mode            : Lossy
Delay relative to video     : -5 ms
Stream size                 : 398 MiB (14%)
Title                       : iTA AC3 5.1
Language                    : Italian
Service kind                : Complete Main
Default                     : Yes
Forced                      : No

Audio #2
ID                          : 3
Format                      : AC-3
Format/Info                 : Audio Coding 3
Commercial name             : Dolby Digital
Codec ID                    : A_AC3
Duration                    : 2 h 4 min
Bit rate mode               : Constant
Bit rate                    : 448 kb/s
Channel(s)                  : 6 channels
Channel layout              : L R C LFE Ls Rs
Sampling rate               : 48.0 kHz
Frame rate                  : 31.250 FPS (1536 SPF)
Compression mode            : Lossy
Delay relative to video     : -5 ms
Stream size                 : 398 MiB (14%)
Title                       : ENG AC3 5.1
Language                    : English
Service kind                : Complete Main
Default                     : No
Forced                      : No

Text #1
ID                          : 4
Format                      : PGS
Muxing mode                 : zlib
Codec ID                    : S_HDMV/PGS
Codec ID/Info               : Picture based subtitle format used on BDs/HD-DVDs
Duration                    : 2 h 4 min
Title                       : iTA FORCED
Language                    : Italian
Default                     : Yes
Forced                      : Yes

Text #2
ID                          : 5
Format                      : UTF-8
Codec ID                    : S_TEXT/UTF8
Codec ID/Info               : UTF-8 Plain Text
Title                       : iTA FORCED
Language                    : Italian
Default                     : No
Forced                      : Yes

Text #3
ID                          : 6
Format                      : PGS
Muxing mode                 : zlib
Codec ID                    : S_HDMV/PGS
Codec ID/Info               : Picture based subtitle format used on BDs/HD-DVDs
Duration                    : 1 h 39 min
Title                       : ENG FORCED
Language                    : English
Default                     : No
Forced                      : Yes

Text #4
ID                          : 7
Format                      : UTF-8
Codec ID                    : S_TEXT/UTF8
Codec ID/Info               : UTF-8 Plain Text
Title                       : ENG FORCED
Language                    : English
Default                     : No
Forced                      : Yes

Text #5
ID                          : 8
Format                      : PGS
Muxing mode                 : zlib
Codec ID                    : S_HDMV/PGS
Codec ID/Info               : Picture based subtitle format used on BDs/HD-DVDs
Duration                    : 2 h 4 min
Title                       : iTA REGULAR
Language                    : Italian
Default                     : No
Forced                      : No

Text #6
ID                          : 9
Format                      : UTF-8
Codec ID                    : S_TEXT/UTF8
Codec ID/Info               : UTF-8 Plain Text
Title                       : iTA REGULAR
Language                    : Italian
Default                     : No
Forced                      : No

Text #7
ID                          : 10
Format                      : PGS
Muxing mode                 : zlib
Codec ID                    : S_HDMV/PGS
Codec ID/Info               : Picture based subtitle format used on BDs/HD-DVDs
Duration                    : 1 h 56 min
Title                       : ENG NON UDENTI
Language                    : English
Default                     : No
Forced                      : No

Text #8
ID                          : 11
Format                      : UTF-8
Codec ID                    : S_TEXT/UTF8
Codec ID/Info               : UTF-8 Plain Text
Title                       : ENG NON UDENTI
Language                    : English
Default                     : No
Forced                      : No

Menu
00:00:00.000                : :Capitolo 01
00:06:34.561                : :Capitolo 02
00:11:02.704                : :Capitolo 03
00:16:31.115                : :Capitolo 04
00:21:30.122                : :Capitolo 05
00:25:23.230                : :Capitolo 06
00:30:45.761                : :Capitolo 07
00:39:26.865                : :Capitolo 08
00:44:43.764                : :Capitolo 09
00:51:42.016                : :Capitolo 10
01:00:26.623                : :Capitolo 11
01:04:42.879                : :Capitolo 12
01:12:43.609                : :Capitolo 13
01:18:30.998                : :Capitolo 14
01:27:17.649                : :Capitolo 15
01:31:43.498                : :Capitolo 16
01:38:56.806                : :Capitolo 17
01:42:54.210                : :Capitolo 18
01:51:59.713                : :Capitolo 19
01:57:17.280                : :Capitolo 20
Info: Per scaricare devi usare un client come uTorrent o Transmission
AnnounceURL
udp://tracker.torrent.eu.org:451/announce
Hash c9d0f3920267455abcc6abaeba8706e48c50b08f
Peers seeds: 17 , leech: 2
Size 2.75 GB
Completato 793x
Aggiunto 07.06.21 - 11:06:46
Uploader   jeddak1
Votazione (Voti: 0)


Condividi questo bittorrent:


html/blog:


bbcode/forum:




Aggiungi Commento