* Dettagli Torrent   globale  | Commenti (0) 


- The Last Days of American Crime (2020) 1080p h264.Ac3 5.1 Ita Eng Sub Ita Eng - MIRCrew -


Download via torrent:
Categoria bittorrent BDRip
Descrizione
The Last Days of American Crime (2020) 1080p h264.Ac3 5.1 Ita Eng Sub Ita Eng - MIRCrew



NO FOUND ONLY ORIGINAL RELEASE


My release is always in double track audio italian and Original audio
for select it use VLC or dvd player home
not use wmp

The Last Days of American Crime (2020)

Quality MIRCrew on HD 720p da 3,4 gb








 

Paese di produzione Stati Uniti d'America
Anno 2020
Durata 149 min
Genere thriller, azione
Regia Olivier Megaton
Soggetto Rick Remender, Greg Tocchini
Sceneggiatura Karl Gajdusek



   Édgar Ramírez : Graham Bricke
   Anna Brewster : Shelby Dupree
   Michael Pitt : Kevin Cash
   Sharlto Copley : William Sawyer
   Sean Cameron Michael : Pete Slatery
   Alonso Grandio : Checkpoint Army Ranger



Il governo americano ha messo a punto un segnale in grado di impedire a chiunque di commettere reati intenzionalmente, con l'intento di sgominare una volta per tutte il terrorismo e il crimine.



In the not-too-distant future, as a final response to terrorism and crime, the U.S. government plans to broadcast a signal making it impossible for anyone to knowingly commit unlawful acts.

 
















General

Complete name                            : The Last Days of American Crime (2020) 1080p h264.Ac3 5.1 Ita Eng Sub Ita Eng - MIRCrewThe Last Days of American Crime (2020) 1080p h264.Ac3 5.1 Ita Eng Sub Ita Eng - MIRCrew.mkv
Format                                   : Matroska
Format version                           : Version 4 / Version 2
File size                                : 3.43 GiB
Duration                                 : 2h 29mn
Overall bit rate                         : 3 297 Kbps
Movie name                               : MIRCrew
Encoded date                             : UTC 2021-05-23 12:28:32
Writing application                      : mkvmerge v26.0.0 ('In The Game&#39 64-bit
Writing library                          : Lavf54.63.100
COMMENT                                  : MIRCrew

Video
ID                                       : 1
Format                                   : AVC
Format/Info                              : Advanced Video Codec
Format profile                           : [email protected]
Format settings, CABAC                   : Yes
Format settings, ReFrames                : 2 frames
Codec ID                                 : V_MPEG4/ISO/AVC
Duration                                 : 2h 29mn
Bit rate                                 : 2 464 Kbps
Nominal bit rate                         : 2 600 Kbps
Width                                    : 1 920 pixels
Height                                   : 800 pixels
Display aspect ratio                     : 2.40:1
Frame rate mode                          : Variable
Frame rate                               : 24.000 fps
Color space                              : YUV
Chroma subsampling                       : 4:2:0
Bit depth                                : 8 bits
Scan type                                : Progressive
Bits/(Pixel*Frame)                       : 0.067
Stream size                              : 2.56 GiB (75%)
Title                                    : MIRCrew
Writing library                          : x264 core 130 r2273
Encoding settings                        : cabac=1 / ref=2 / deblock=1:0:0
Language                                 : Italian
Default                                  : Yes
Forced                                   : No
DURATION                                 : 02:29:02.417000000


Audio #1
ID                                       : 2
Format                                   : AC-3
Format/Info                              : Audio Coding 3
Mode extension                           : CM (complete main)
Codec ID                                 : A_AC3
Duration                                 : 2h 29mn
Bit rate mode                            : Constant
Bit rate                                 : 384 Kbps
Channel(s)                               : 6 channels
Channel positions                        : Front: L C R, Side: L R, LFE
Sampling rate                            : 48.0 KHz
Bit depth                                : 16 bits
Compression mode                         : Lossy
Delay relative to video                  : -5ms
Stream size                              : 409 MiB (12%)
Title                                    : Ita Ac3 5.1
Language                                 : Italian
Default                                  : Yes
Forced                                   : No
DURATION                                 : 02:29:02.624000000


Audio #2
ID                                       : 3
Format                                   : AC-3
Format/Info                              : Audio Coding 3
Mode extension                           : CM (complete main)
Codec ID                                 : A_AC3
Duration                                 : 2h 29mn
Bit rate mode                            : Constant
Bit rate                                 : 384 Kbps
Channel(s)                               : 6 channels
Channel positions                        : Front: L C R, Side: L R, LFE
Sampling rate                            : 48.0 KHz
Bit depth                                : 16 bits
Compression mode                         : Lossy
Delay relative to video                  : -5ms
Stream size                              : 409 MiB (12%)
Title                                    : Eng Ac3 5.1
Language                                 : English
Default                                  : No
Forced                                   : No
DURATION                                 : 02:29:02.624000000






Info: Per scaricare devi usare un client come uTorrent o Transmission
AnnounceURL
udp://tracker.torrent.eu.org:451/announce
Hash a86da82335fc6ea51e3efac8010896f48e4a36da
Peers seeds: 52 , leech: 5
Size 3.43 GB
Completato 2525x
Aggiunto 06.06.21 - 16:06:53
Uploader   robbyrs
Votazione (Voti: 0)


Condividi questo bittorrent:


html/blog:


bbcode/forum:




Aggiungi Commento