* Dettagli Torrent   globale  | Commenti (0) 


- In vacanza su Marte (2020) ITA Ac3 5.1 WebRip 1080p H264 [ArMor] -


Download via torrent:
Categoria bittorrent BDRip
Descrizione
[center]







Regista: Neri Parenti
Genere: Commedia
Anno: 2020
Paese: Italia
Distribuzione: Warner Bros. Pictures



Christian De Sica, Massimo Boldi, Lucia Mascino, Milena Vukotic, Paola Minaccioni, Denise Tantucci, Fiammetta Cicogna, Francesco Bruni, Herbert Ballerina, Alessandro Bisegna



In Vacanza su Marte, il film diretto da Neri Parenti, segna il ritorno sullo schermo della storica coppia formata da Christian De Sica e Massimo Boldi.
Ambientato nel 2030, il film racconta la storia di Fabio (Christian De Sica), che sta per convogliare a nozze su Marte con la ricca Bea, dopo che per anni non ha più dato sue notizie a sua moglie e a suo figlio Giulio. Ma durante un'escursione spaziale andata male, succede qualcosa d'inaspettato: Giulio (Massimo Boldi) da giovane ragazzo si trasforma in un settantenne. Cosa succederà quando Fabio incontrerà l'arzillo vecchietto Giulio?
Del cast del film fanno parte anche: Lucia Mascino, Milena Vukotic, Paola Minaccioni e Herbert Ballerina.
















General
Unique ID                                : 237462468003267382759680178532204409062 (0xB2A59B9770F072BE89783153931FF0E6)
Complete name                            : In vacanza su Marte (2020) ITA Ac3 5.1 WebRip 1080p H264 [ArMor].mkv
Format                                   : Matroska
Format version                           : Version 4
File size                                : 3.50 GiB
Duration                                 : 1 h 33 min
Overall bit rate                         : 5 354 kb/s
Encoded date                             : UTC 2020-12-13 17:47:53
Writing application                      : mkvmerge v15.0.0 ('Duel with the Devil&#39 64-bit
Writing library                          : libebml v1.3.5 + libmatroska v1.4.5 / Lavf58.29.100

Video
ID                                       : 1
Format                                   : AVC
Format/Info                              : Advanced Video Codec
Format profile                           : [email protected]
Format settings                          : CABAC / 4 Ref Frames
Format settings, CABAC                   : Yes
Format settings, Reference frames        : 4 frames
Codec ID                                 : V_MPEG4/ISO/AVC
Duration                                 : 1 h 33 min
Bit rate                                 : 5 000 kb/s
Width                                    : 1 920 pixels
Height                                   : 1 040 pixels
Display aspect ratio                     : 1.85:1
Frame rate mode                          : Constant
Frame rate                               : 23.976 (24000/1001) FPS
Color space                              : YUV
Chroma subsampling                       : 4:2:0
Bit depth                                : 8 bits
Scan type                                : Progressive
Bits/(Pixel*Frame)                       : 0.104
Stream size                              : 3.20 GiB (92%)
Writing library                          : x264 core 157 r2935 545de2f
Encoding settings                        : cabac=1 / ref=2 / deblock=1:0:0 / analyse=0x1:0x111 / me=hex / subme=6 / psy=1 / psy_rd=1.00:0.00 / mixed_ref=1 / me_range=16 / chroma_me=1 / trellis=1 / 8x8dct=0 / cqm=0 / deadzone=21,11 / fast_pskip=1 / chroma_qp_offset=-2 / threads=18 / lookahead_threads=3 / sliced_threads=0 / nr=0 / decimate=1 / interlaced=0 / bluray_compat=0 / constrained_intra=0 / bframes=3 / b_pyramid=2 / b_adapt=1 / b_bias=0 / direct=1 / weightb=1 / open_gop=0 / weightp=1 / keyint=240 / keyint_min=24 / scenecut=40 / intra_refresh=0 / rc_lookahead=30 / rc=abr / mbtree=1 / bitrate=5000 / ratetol=1.0 / qcomp=0.60 / qpmin=0 / qpmax=69 / qpstep=4 / vbv_maxrate=20000 / vbv_bufsize=25000 / nal_hrd=none / filler=0 / ip_ratio=1.40 / aq=1:1.00
Default                                  : Yes
Forced                                   : No
Color range                              : Limited
Color primaries                          : BT.709
Transfer characteristics                 : BT.709
Matrix coefficients                      : BT.709

Audio
ID                                       : 2
Format                                   : AC-3
Format/Info                              : Audio Coding 3
Commercial name                          : Dolby Digital
Codec ID                                 : A_AC3
Duration                                 : 1 h 33 min
Bit rate mode                            : Constant
Bit rate                                 : 448 kb/s
Channel(s)                               : 6 channels
Channel layout                           : L R C LFE Ls Rs
Sampling rate                            : 48.0 kHz
Frame rate                               : 31.250 FPS (1536 SPF)
Compression mode                         : Lossy
Stream size                              : 300 MiB (8%)
Title                                    : WEBDL EAC3
Language                                 : Italian
Service kind                             : Complete Main
Default                                  : Yes
Forced                                   : No


[/center]

Info: Per scaricare devi usare un client come uTorrent o Transmission
AnnounceURL
udp://tracker.coppersurfer.tk:6969/announce
Hash 10b6c0eefc9eaf5bdfd24e7ba8c0f347eecfabe5
Peers seeds: 0 , leech: 0
Size 3.50 GB
Completato 0x
Aggiunto 13.12.20 - 22:12:04
Uploader   ArMor
Votazione (Voti: 0)


Condividi questo bittorrent:


html/blog:


bbcode/forum:




Aggiungi Commento