* Dettagli Torrent   globale  | Commenti (0) 


- Unico indizio la luna piena-Silver Bullet (1985) ITA-ENG Ac3 5.1 BDRip 1080p H264 [ArMor] -


Download via torrent:
Categoria bittorrent BDRip
Descrizione
[center]







Regista: Daniel Attias
Genere: Horror
Anno: 1985
Paese: USA
Durata: 92 min
Distribuzione: FILMAURO (1986) - WARNER HOME VIDEO



Gary Busey, Corey Haim, Everett McGill, Megan Follows, Terry O'Quinn, Robin Groves, Leon Russom, Bill Smitrovich, Joe Wright, James A. Baffico, Heather Simmons, Rebecca Fleming



In una cittadina di provincia americana, inizia improvvisamente un'atroce serie di delitti, che tra gli abitanti del posto sparge una vera e propria psicosi del mostro. La polizia non riesce a scoprire nulla: si organizza anche una "battuta" in piena regola, che però si risolve tragicamente con altri quattro morti. L'unico che - prima per immaginazione, poi con certezza - capisce che il folle deve essere un "lupo mannaro" è il piccolo Marty Coslaw, un undicenne handicappato che una sera si trova faccia a faccia col mostro, riuscendo a ferirlo ad un occhio. La prima a raccogliere le confidenze di Marty, è sua sorella maggiore, Jane (da sempre gelosa del fratello, troppo "coccolato", a suo parere, dai genitori), la quale gli crede.



In a small town, brutal killings start to plague the close knit community. Marty Coslaw, a paraplegic boy, is convinced the murders are the doings of a werewolf.












General
Unique ID                                : 217034944685079015073254243537198857287 (0xA34768EEDCA02345A91A24F6A7113C47)
Complete name                            : Unico indizio la luna piena-Silver Bullet (1985) ITA-ENG Ac3 5.1 BDRip 1080p H264 [ArMor].mkv
Format                                   : Matroska
Format version                           : Version 4
File size                                : 3.51 GiB
Duration                                 : 1 h 34 min
Overall bit rate                         : 5 291 kb/s
Encoded date                             : UTC 2020-12-11 14:24:44
Writing application                      : mkvmerge v15.0.0 ('Duel with the Devil&#39 64-bit
Writing library                          : libebml v1.3.5 + libmatroska v1.4.5 / Lavf58.29.100

Video
ID                                       : 1
Format                                   : AVC
Format/Info                              : Advanced Video Codec
Format profile                           : [email protected]
Format settings                          : CABAC / 4 Ref Frames
Format settings, CABAC                   : Yes
Format settings, Reference frames        : 4 frames
Codec ID                                 : V_MPEG4/ISO/AVC
Duration                                 : 1 h 34 min
Bit rate                                 : 5 000 kb/s
Width                                    : 1 918 pixels
Height                                   : 818 pixels
Display aspect ratio                     : 2.35:1
Frame rate mode                          : Constant
Frame rate                               : 23.976 (24000/1001) FPS
Color space                              : YUV
Chroma subsampling                       : 4:2:0
Bit depth                                : 8 bits
Scan type                                : Progressive
Bits/(Pixel*Frame)                       : 0.133
Stream size                              : 3.25 GiB (93%)
Writing library                          : x264 core 157 r2935 545de2f
Encoding settings                        : cabac=1 / ref=2 / deblock=1:0:0 / analyse=0x1:0x111 / me=hex / subme=6 / psy=1 / psy_rd=1.00:0.00 / mixed_ref=1 / me_range=16 / chroma_me=1 / trellis=1 / 8x8dct=0 / cqm=0 / deadzone=21,11 / fast_pskip=1 / chroma_qp_offset=-2 / threads=18 / lookahead_threads=3 / sliced_threads=0 / nr=0 / decimate=1 / interlaced=0 / bluray_compat=0 / constrained_intra=0 / bframes=3 / b_pyramid=2 / b_adapt=1 / b_bias=0 / direct=1 / weightb=1 / open_gop=0 / weightp=1 / keyint=240 / keyint_min=24 / scenecut=40 / intra_refresh=0 / rc_lookahead=30 / rc=abr / mbtree=1 / bitrate=5000 / ratetol=1.0 / qcomp=0.60 / qpmin=0 / qpmax=69 / qpstep=4 / vbv_maxrate=20000 / vbv_bufsize=25000 / nal_hrd=none / filler=0 / ip_ratio=1.40 / aq=1:1.00
Default                                  : Yes
Forced                                   : No
Color range                              : Limited
Color primaries                          : BT.709
Transfer characteristics                 : BT.709
Matrix coefficients                      : BT.709

Audio #1
ID                                       : 2
Format                                   : AC-3
Format/Info                              : Audio Coding 3
Commercial name                          : Dolby Digital
Codec ID                                 : A_AC3
Duration                                 : 1 h 34 min
Bit rate mode                            : Constant
Bit rate                                 : 192 kb/s
Channel(s)                               : 2 channels
Channel layout                           : L R
Sampling rate                            : 48.0 kHz
Frame rate                               : 31.250 FPS (1536 SPF)
Compression mode                         : Lossy
Stream size                              : 130 MiB (4%)
Title                                    : DVD
Language                                 : Italian
Service kind                             : Complete Main
Default                                  : Yes
Forced                                   : No

Audio #2
ID                                       : 3
Format                                   : AC-3
Format/Info                              : Audio Coding 3
Commercial name                          : Dolby Digital
Codec ID                                 : A_AC3
Duration                                 : 1 h 34 min
Bit rate mode                            : Constant
Bit rate                                 : 192 kb/s
Channel(s)                               : 2 channels
Channel layout                           : L R
Sampling rate                            : 48.0 kHz
Frame rate                               : 31.250 FPS (1536 SPF)
Compression mode                         : Lossy
Stream size                              : 130 MiB (4%)
Title                                    : Stereo
Language                                 : English
Service kind                             : Complete Main
Default                                  : No
Forced                                   : No


[/center]

Info: Per scaricare devi usare un client come uTorrent o Transmission
AnnounceURL
udp://tracker.coppersurfer.tk:6969/announce
Hash d78188c1fd598b8fd6590e95f6638adb1746bfb0
Peers seeds: 0 , leech: 0
Size 3.51 GB
Completato 0x
Aggiunto 13.12.20 - 00:12:15
Uploader   ArMor
Votazione (Voti: 0)


Condividi questo bittorrent:


html/blog:


bbcode/forum:




Aggiungi Commento