* Dettagli Torrent   globale  | Commenti (0) 


- Sono la tua donna-Im your woman (2020) ITA-ENG Ac3 5.1 WebRip 1080p H264 [ArMor] -


Download via torrent:
Categoria bittorrent BDRip
Descrizione
[center]







Regista: Julia Hart
Genere: Drammatico
Anno: 2020
Paese: USA
Durata: 120 min
Distribuzione: Amazon Prime Video



Rachel Brosnahan, Marsha Stephanie Blake, Arinzé Kene, Jameson Charles, Justin Charles, Frankie Faison, Marceline Hugot, Barrett Shaffer, Bill Heck, Jarrod DiGiorgi



I'm Your Woman, il film diretto da Julia Hart, ambientato durante gli anni 70', racconta la storia di Jean (Rachel Brosnahan), una giovane casalinga e neo mamma, sposata con un criminale. Quando il marito tradisce i suoi complici, Jean è costretta a scappare perché in pericolo. La donna non è mai stata da sola e non ha lo spirito giusto per affrontare questo tipo di situazione. Ma grazie anche all'aiuto di Cal (Arinzé Kene) e Teri (Marsha Stephanie Blake), con i quali stringerà un'alleanza, Jean scoprirà in se stessa risorse inaspettate che le permetteranno di proteggere il suo bambino e prendere finalmente il controllo della propria vita.



In this 1970s set crime drama, a woman is forced to go on the run after her husband betrays his partners, sending her and her baby on a dangerous journey.












General
Unique ID                                : 185084029304719515355420880724345628417 (0x8B3DE32E636C69E086EDD215DDFA2701)
Complete name                            : Sono la tua donna-I.m your woman (2020) ITA-ENG Ac3 5.1 WebRip 1080p H264 [ArMor].mkv
Format                                   : Matroska
Format version                           : Version 4
File size                                : 4.89 GiB
Duration                                 : 2 h 0 min
Overall bit rate                         : 5 818 kb/s
Encoded date                             : UTC 2020-12-11 14:16:15
Writing application                      : mkvmerge v15.0.0 ('Duel with the Devil&#39 64-bit
Writing library                          : libebml v1.3.5 + libmatroska v1.4.5 / Lavf58.29.100

Video
ID                                       : 1
Format                                   : AVC
Format/Info                              : Advanced Video Codec
Format profile                           : [email protected]
Format settings                          : CABAC / 4 Ref Frames
Format settings, CABAC                   : Yes
Format settings, Reference frames        : 4 frames
Codec ID                                 : V_MPEG4/ISO/AVC
Duration                                 : 2 h 0 min
Bit rate                                 : 5 000 kb/s
Width                                    : 1 910 pixels
Height                                   : 800 pixels
Display aspect ratio                     : 2.40:1
Frame rate mode                          : Constant
Frame rate                               : 23.976 (24000/1001) FPS
Color space                              : YUV
Chroma subsampling                       : 4:2:0
Bit depth                                : 8 bits
Scan type                                : Progressive
Bits/(Pixel*Frame)                       : 0.136
Stream size                              : 4.14 GiB (85%)
Writing library                          : x264 core 157 r2935 545de2f
Encoding settings                        : cabac=1 / ref=2 / deblock=1:0:0 / analyse=0x1:0x111 / me=hex / subme=6 / psy=1 / psy_rd=1.00:0.00 / mixed_ref=1 / me_range=16 / chroma_me=1 / trellis=1 / 8x8dct=0 / cqm=0 / deadzone=21,11 / fast_pskip=1 / chroma_qp_offset=-2 / threads=18 / lookahead_threads=3 / sliced_threads=0 / nr=0 / decimate=1 / interlaced=0 / bluray_compat=0 / constrained_intra=0 / bframes=3 / b_pyramid=2 / b_adapt=1 / b_bias=0 / direct=1 / weightb=1 / open_gop=0 / weightp=1 / keyint=240 / keyint_min=24 / scenecut=40 / intra_refresh=0 / rc_lookahead=30 / rc=abr / mbtree=1 / bitrate=5000 / ratetol=1.0 / qcomp=0.60 / qpmin=0 / qpmax=69 / qpstep=4 / vbv_maxrate=20000 / vbv_bufsize=25000 / nal_hrd=none / filler=0 / ip_ratio=1.40 / aq=1:1.00
Default                                  : Yes
Forced                                   : No
Color range                              : Limited
Color primaries                          : BT.709
Transfer characteristics                 : BT.709
Matrix coefficients                      : BT.709

Audio #1
ID                                       : 2
Format                                   : AC-3
Format/Info                              : Audio Coding 3
Commercial name                          : Dolby Digital
Codec ID                                 : A_AC3
Duration                                 : 2 h 0 min
Bit rate mode                            : Constant
Bit rate                                 : 448 kb/s
Channel(s)                               : 6 channels
Channel layout                           : L R C LFE Ls Rs
Sampling rate                            : 48.0 kHz
Frame rate                               : 31.250 FPS (1536 SPF)
Compression mode                         : Lossy
Stream size                              : 386 MiB (8%)
Title                                    : WEBDL EAC3
Language                                 : Italian
Service kind                             : Complete Main
Default                                  : Yes
Forced                                   : No

Audio #2
ID                                       : 3
Format                                   : AC-3
Format/Info                              : Audio Coding 3
Commercial name                          : Dolby Digital
Codec ID                                 : A_AC3
Duration                                 : 2 h 0 min
Bit rate mode                            : Constant
Bit rate                                 : 448 kb/s
Channel(s)                               : 6 channels
Channel layout                           : L R C LFE Ls Rs
Sampling rate                            : 48.0 kHz
Frame rate                               : 31.250 FPS (1536 SPF)
Compression mode                         : Lossy
Stream size                              : 386 MiB (8%)
Title                                    : EAC3
Language                                 : English
Service kind                             : Complete Main
Default                                  : No
Forced                                   : No


[/center]

Info: Per scaricare devi usare un client come uTorrent o Transmission
AnnounceURL
udp://tracker.coppersurfer.tk:6969/announce
Hash 5c808a2063bb17c8408c56cb864bd7e59364e29b
Peers seeds: 0 , leech: 0
Size 4.89 GB
Completato 0x
Aggiunto 13.12.20 - 00:12:08
Uploader   ArMor
Votazione (Voti: 0)


Condividi questo bittorrent:


html/blog:


bbcode/forum:




Aggiungi Commento