* Dettagli Torrent   globale  | Commenti (0) 


- ---- Le Iene Show 10/12/2020 ---- H265 AAC -


Download via torrent:
Categoria bittorrent BDRip
Descrizione
LE IENE 10/12/2020 [/SIZE]



.: Scheda del filmato :.

Anno: 2020
Genere: INCHIESTA
Regia: DAVIDE PARENTI



.: Descrizione :.

Programma di approfondimento e di attuailtà che propone inchieste e reportage facendo uso di uno stile irriverente e satirico.

.: Scheda tecnica :.

General
Unique ID                                : 168951728325859356259567688156897558786 (0x7F1AEB55885D0F28EDB9E9C4AABF4102)
Complete name                            : C:----  Le Iene Show Format                                   : Matroska
Format version                           : Version 4
File size                                : 3.42 GiB
Duration                                 : 3 h 9 min
Overall bit rate                         : 2 578 kb/s
Encoded date                             : UTC 2020-12-11 11:58:24
Writing application                      : mkvmerge v47.0.0 ('Black Flag&#39 64-bit
Writing library                          : libebml v1.3.10 + libmatroska v1.5.2

Video
ID                                       : 1
Format                                   : HEVC
Format/Info                              : High Efficiency Video Coding
Format profile                           : [email protected]@Main
Codec ID                                 : V_MPEGH/ISO/HEVC
Duration                                 : 3 h 9 min
Bit rate                                 : 2 446 kb/s
Width                                    : 1 920 pixels
Height                                   : 1 080 pixels
Display aspect ratio                     : 16:9
Frame rate mode                          : Constant
Frame rate                               : 25.000 FPS
Standard                                 : Component
Color space                              : YUV
Chroma subsampling                       : 4:2:0
Bit depth                                : 8 bits
Bits/(Pixel*Frame)                       : 0.047
Stream size                              : 3.25 GiB (95%)
Default                                  : Yes
Forced                                   : No
Color range                              : Limited
Color primaries                          : BT.709
Transfer characteristics                 : BT.709
Matrix coefficients                      : BT.709

Audio
ID                                       : 2
Format                                   : AAC LC
Format/Info                              : Advanced Audio Codec Low Complexity
Codec ID                                 : A_AAC-2
Duration                                 : 3 h 9 min
Bit rate                                 : 132 kb/s
Channel(s)                               : 2 channels
Channel layout                           : L R
Sampling rate                            : 48.0 kHz
Frame rate                               : 46.875 FPS (1024 SPF)
Compression mode                         : Lossy
Delay relative to video                  : 9 ms
Stream size                              : 176 MiB (5%)
Language                                 : Italian
Default                                  : No
Forced                                   : No








.: Note :.



Orario di seed e Banda disponibile:
24 / 24 Ai primi 10 completati
Info: Per scaricare devi usare un client come uTorrent o Transmission
AnnounceURL
udp://tracker.torrent.eu.org:451
Hash ef5a1269b2d7a6f7c701ec8cf7fcc0f1d39f3e35
Peers seeds: 6 , leech: 2
Size 3.42 GB
Completato 55x
Aggiunto 11.12.20 - 16:12:49
Uploader   Sfrank77
Votazione (Voti: 0)


Condividi questo bittorrent:


html/blog:


bbcode/forum:




Aggiungi Commento