* Dettagli Torrent   globale  | Commenti (0) 


- Tenet (2020) ITA-ENG-FRE-HIN-TAM Ac3 5.1 BDRip 1080p H264 [ArMor] -


Download via torrent:
Categoria bittorrent BDRip
Descrizione
[center]







Regista: Christopher Nolan
Genere: Azione, Fantascienza, Thriller
Anno: 2020
Paese: Gran Bretagna, USA
Durata: 149 min
Data di uscita: 26 agosto 2020
Distribuzione: Warner Bros. Pictures



John David Washington, Robert Pattinson, Elizabeth Debicki, Aaron Taylor-Johnson, Clémence Poésy, Michael Caine, Kenneth Branagh, Dimple Kapadia, Himesh Patel, Fiona Dourif, Andrew Howard, Martin Donovan



Tenet, il film diretto da Christopher Nolan, è ambientato nel mondo dello spionaggio internazionale, dove le nazioni si uniscono, al di là dei loro interessi, per risolvere un enigmatico intrigo. Al Protagonista (John David Washington), un agente ben addestrato e molto sensibile, viene assegnato un importante compito: fermare quella che potrebbe rivelarsi come un'apocalisse planetaria, una minaccia peggiore dell'Armageddon. Ma in questa ardua missione non sarà solo, in suo aiuto accorrerà un partner (Robert Pattinson) e sua vecchia conoscenza.



Armed with only one word, Tenet, and fighting for the survival of the entire world, a Protagonist journeys through a twilight world of international espionage on a mission that will unfold in something beyond real time.












General
Unique ID                                : 235941946439244608587959883194893242578 (0xB180C41729A8008FBF76E29173C690D2)
Complete name                            : Tenet (2020) ITA-ENG-FRE-HIN-TAM Ac3 5.1 BDRip 1080p H264 [ArMor].mkv
Format                                   : Matroska
Format version                           : Version 4
File size                                : 7.56 GiB
Duration                                 : 2 h 30 min
Overall bit rate                         : 7 210 kb/s
Encoded date                             : UTC 2020-12-06 06:34:11
Writing application                      : mkvmerge v15.0.0 ('Duel with the Devil&#39 64-bit
Writing library                          : libebml v1.3.5 + libmatroska v1.4.5 / Lavf58.29.100

Video
ID                                       : 1
Format                                   : AVC
Format/Info                              : Advanced Video Codec
Format profile                           : [email protected]
Format settings                          : CABAC / 4 Ref Frames
Format settings, CABAC                   : Yes
Format settings, Reference frames        : 4 frames
Codec ID                                 : V_MPEG4/ISO/AVC
Duration                                 : 2 h 30 min
Bit rate                                 : 5 000 kb/s
Width                                    : 1 920 pixels
Height                                   : 872 pixels
Display aspect ratio                     : 16:9
Frame rate mode                          : Constant
Frame rate                               : 23.976 (24000/1001) FPS
Color space                              : YUV
Chroma subsampling                       : 4:2:0
Bit depth                                : 8 bits
Scan type                                : Progressive
Bits/(Pixel*Frame)                       : 0.125
Stream size                              : 5.21 GiB (69%)
Writing library                          : x264 core 157 r2935 545de2f
Encoding settings                        : cabac=1 / ref=2 / deblock=1:0:0 / analyse=0x1:0x111 / me=hex / subme=6 / psy=1 / psy_rd=1.00:0.00 / mixed_ref=1 / me_range=16 / chroma_me=1 / trellis=1 / 8x8dct=0 / cqm=0 / deadzone=21,11 / fast_pskip=1 / chroma_qp_offset=-2 / threads=18 / lookahead_threads=3 / sliced_threads=0 / nr=0 / decimate=1 / interlaced=0 / bluray_compat=0 / constrained_intra=0 / bframes=3 / b_pyramid=2 / b_adapt=1 / b_bias=0 / direct=1 / weightb=1 / open_gop=0 / weightp=1 / keyint=240 / keyint_min=24 / scenecut=40 / intra_refresh=0 / rc_lookahead=30 / rc=abr / mbtree=1 / bitrate=5000 / ratetol=1.0 / qcomp=0.60 / qpmin=0 / qpmax=69 / qpstep=4 / vbv_maxrate=20000 / vbv_bufsize=25000 / nal_hrd=none / filler=0 / ip_ratio=1.40 / aq=1:1.00
Default                                  : Yes
Forced                                   : No
Color range                              : Limited
Color primaries                          : BT.709
Transfer characteristics                 : BT.709
Matrix coefficients                      : BT.709

Audio #1
ID                                       : 2
Format                                   : AC-3
Format/Info                              : Audio Coding 3
Commercial name                          : Dolby Digital
Codec ID                                 : A_AC3
Duration                                 : 2 h 30 min
Bit rate mode                            : Constant
Bit rate                                 : 448 kb/s
Channel(s)                               : 6 channels
Channel layout                           : L R C LFE Ls Rs
Sampling rate                            : 48.0 kHz
Frame rate                               : 31.250 FPS (1536 SPF)
Compression mode                         : Lossy
Stream size                              : 481 MiB (6%)
Title                                    : Surround
Language                                 : Italian
Service kind                             : Complete Main
Default                                  : Yes
Forced                                   : No

Audio #2
ID                                       : 3
Format                                   : AC-3
Format/Info                              : Audio Coding 3
Commercial name                          : Dolby Digital
Codec ID                                 : A_AC3
Duration                                 : 2 h 30 min
Bit rate mode                            : Constant
Bit rate                                 : 448 kb/s
Channel(s)                               : 6 channels
Channel layout                           : L R C LFE Ls Rs
Sampling rate                            : 48.0 kHz
Frame rate                               : 31.250 FPS (1536 SPF)
Compression mode                         : Lossy
Stream size                              : 481 MiB (6%)
Title                                    : Surround
Language                                 : English
Service kind                             : Complete Main
Default                                  : No
Forced                                   : No

Audio #3
ID                                       : 4
Format                                   : AC-3
Format/Info                              : Audio Coding 3
Commercial name                          : Dolby Digital
Codec ID                                 : A_AC3
Duration                                 : 2 h 30 min
Bit rate mode                            : Constant
Bit rate                                 : 448 kb/s
Channel(s)                               : 6 channels
Channel layout                           : L R C LFE Ls Rs
Sampling rate                            : 48.0 kHz
Frame rate                               : 31.250 FPS (1536 SPF)
Compression mode                         : Lossy
Stream size                              : 481 MiB (6%)
Title                                    : Surround
Language                                 : French
Service kind                             : Complete Main
Default                                  : No
Forced                                   : No

Audio #4
ID                                       : 5
Format                                   : AC-3
Format/Info                              : Audio Coding 3
Commercial name                          : Dolby Digital
Codec ID                                 : A_AC3
Duration                                 : 2 h 30 min
Bit rate mode                            : Constant
Bit rate                                 : 448 kb/s
Channel(s)                               : 6 channels
Channel layout                           : L R C LFE Ls Rs
Sampling rate                            : 48.0 kHz
Frame rate                               : 31.250 FPS (1536 SPF)
Compression mode                         : Lossy
Stream size                              : 481 MiB (6%)
Title                                    : Surround
Language                                 : Hindi
Service kind                             : Complete Main
Default                                  : No
Forced                                   : No

Audio #5
ID                                       : 6
Format                                   : AC-3
Format/Info                              : Audio Coding 3
Commercial name                          : Dolby Digital
Codec ID                                 : A_AC3
Duration                                 : 2 h 30 min
Bit rate mode                            : Constant
Bit rate                                 : 448 kb/s
Channel(s)                               : 6 channels
Channel layout                           : L R C LFE Ls Rs
Sampling rate                            : 48.0 kHz
Frame rate                               : 31.250 FPS (1536 SPF)
Compression mode                         : Lossy
Stream size                              : 481 MiB (6%)
Title                                    : Surround
Language                                 : Tamil
Service kind                             : Complete Main
Default                                  : No
Forced                                   : No

Menu
00:00:00.000                             : :Chapter 1
00:09:39.412                             : :Chapter 2
00:19:30.503                             : :Chapter 3
00:28:18.405                             : :Chapter 4
00:38:49.369                             : :Chapter 5
00:49:20.166                             : :Chapter 6
01:00:33.255                             : :Chapter 7
01:09:41.511                             : :Chapter 8
01:22:36.285                             : :Chapter 9
01:30:54.741                             : :Chapter 10
01:39:40.683                             : :Chapter 11
01:51:02.281                             : :Chapter 12
01:59:40.799                             : :Chapter 13
02:11:42.853                             : :Chapter 14
02:19:07.047                             : :Chapter 15


[/center]

Info: Per scaricare devi usare un client come uTorrent o Transmission
AnnounceURL
udp://tracker.coppersurfer.tk:6969/announce
Hash b76382b33b5312e4b2caf851b3dad069d340d13a
Peers seeds: 0 , leech: 0
Size 7.82 GB
Completato 0x
Aggiunto 07.12.20 - 00:12:54
Uploader   ArMor
Votazione (Voti: 0)


Condividi questo bittorrent:


html/blog:


bbcode/forum:




Aggiungi Commento