* Dettagli Torrent   globale  | Commenti (0) 


- Mank (2020) ITA-ENG Ac3 5.1 WebRip 1080p H264 [ArMor] -


Download via torrent:
Categoria bittorrent BDRip
Descrizione
[center]







Regista: David Fincher
Genere: Drammatico, Biografico
Anno: 2020
Paese: USA
Durata: 131 min
Distribuzione: Netflix



Gary Oldman, Amanda Seyfried, Lily Collins, Arliss Howard, Tom Pelphrey, Sam Troughton, Tuppence Middleton, Tom Burke, Joseph Cross, Ferdinand Kingsley, Jamie McShane, Toby Leonard Moore, Monika Gossmann, Charles Dance



Mank, il film diretto da David Fincher, narra la vera storia di Herman Mankiewicz (Gary Oldman), celebre sceneggiatore statunitense premiato con l'Oscar per il capolavoro diretto da Orson Welles "Quarto potere" (1941).
La pellicola segue Mankiewicz durante la nascita e la produzione del film di Welles e racconta la Hollywood degli anni '30 attraverso l'occhio critico dello sceneggiatore.
Accanto al protagonista Gary Oldman troviamo Amanda Seyfried nel ruolo dell'attrice Marion Davies, Lily Collins nei panni di Rita Alexander la segretaria di Mankiewicz, Tuppence Middleton come la moglie Sara Mankiewicz e Tom Burke nel ruolo del regista Orson Welles.



1930's Hollywood is reevaluated through the eyes of scathing social critic and alcoholic screenwriter Herman J. Mankiewicz as he races to finish the screenplay of Citizen Kane.












General
Unique ID                                : 240328539226004201030239473541986479945 (0xB4CD97D0117C7E9C8B20BAD4688D6F49)
Complete name                            : Mank (2020) ITA-ENG Ac3 5.1 WebRip 1080p H264 [ArMor].mkv
Format                                   : Matroska
Format version                           : Version 4
File size                                : 5.35 GiB
Duration                                 : 2 h 12 min
Overall bit rate                         : 5 772 kb/s
Encoded date                             : UTC 2020-12-06 06:27:22
Writing application                      : mkvmerge v15.0.0 ('Duel with the Devil&#39 64-bit
Writing library                          : libebml v1.3.5 + libmatroska v1.4.5 / Lavf58.29.100

Video
ID                                       : 1
Format                                   : AVC
Format/Info                              : Advanced Video Codec
Format profile                           : [email protected]
Format settings                          : CABAC / 4 Ref Frames
Format settings, CABAC                   : Yes
Format settings, Reference frames        : 4 frames
Codec ID                                 : V_MPEG4/ISO/AVC
Duration                                 : 2 h 12 min
Bit rate                                 : 5 000 kb/s
Width                                    : 1 920 pixels
Height                                   : 872 pixels
Display aspect ratio                     : 2.2:1
Frame rate mode                          : Constant
Frame rate                               : 24.000 FPS
Color space                              : YUV
Chroma subsampling                       : 4:2:0
Bit depth                                : 8 bits
Scan type                                : Progressive
Bits/(Pixel*Frame)                       : 0.124
Stream size                              : 4.52 GiB (84%)
Writing library                          : x264 core 157 r2935 545de2f
Encoding settings                        : cabac=1 / ref=2 / deblock=1:0:0 / analyse=0x1:0x111 / me=hex / subme=6 / psy=1 / psy_rd=1.00:0.00 / mixed_ref=1 / me_range=16 / chroma_me=1 / trellis=1 / 8x8dct=0 / cqm=0 / deadzone=21,11 / fast_pskip=1 / chroma_qp_offset=-2 / threads=18 / lookahead_threads=3 / sliced_threads=0 / nr=0 / decimate=1 / interlaced=0 / bluray_compat=0 / constrained_intra=0 / bframes=3 / b_pyramid=2 / b_adapt=1 / b_bias=0 / direct=1 / weightb=1 / open_gop=0 / weightp=1 / keyint=240 / keyint_min=24 / scenecut=40 / intra_refresh=0 / rc_lookahead=30 / rc=abr / mbtree=1 / bitrate=5000 / ratetol=1.0 / qcomp=0.60 / qpmin=0 / qpmax=69 / qpstep=4 / vbv_maxrate=20000 / vbv_bufsize=25000 / nal_hrd=none / filler=0 / ip_ratio=1.40 / aq=1:1.00
Default                                  : Yes
Forced                                   : No
Color range                              : Limited
Color primaries                          : BT.709
Transfer characteristics                 : BT.709
Matrix coefficients                      : BT.709

Audio #1
ID                                       : 2
Format                                   : AC-3
Format/Info                              : Audio Coding 3
Commercial name                          : Dolby Digital
Codec ID                                 : A_AC3
Duration                                 : 2 h 12 min
Bit rate mode                            : Constant
Bit rate                                 : 448 kb/s
Channel(s)                               : 6 channels
Channel layout                           : L R C LFE Ls Rs
Sampling rate                            : 48.0 kHz
Frame rate                               : 31.250 FPS (1536 SPF)
Compression mode                         : Lossy
Stream size                              : 425 MiB (8%)
Title                                    : WEBDL EAC3
Language                                 : Italian
Service kind                             : Complete Main
Default                                  : Yes
Forced                                   : No

Audio #2
ID                                       : 3
Format                                   : AC-3
Format/Info                              : Audio Coding 3
Commercial name                          : Dolby Digital
Codec ID                                 : A_AC3
Duration                                 : 2 h 12 min
Bit rate mode                            : Constant
Bit rate                                 : 448 kb/s
Channel(s)                               : 6 channels
Channel layout                           : L R C LFE Ls Rs
Sampling rate                            : 48.0 kHz
Frame rate                               : 31.250 FPS (1536 SPF)
Compression mode                         : Lossy
Stream size                              : 425 MiB (8%)
Title                                    : EAC3
Language                                 : English
Service kind                             : Complete Main
Default                                  : No
Forced                                   : No


[/center]

Info: Per scaricare devi usare un client come uTorrent o Transmission
AnnounceURL
udp://tracker.coppersurfer.tk:6969/announce
Hash 51c3d4a9e686fc990a2eb85a78110b2cc8a5a42d
Peers seeds: 0 , leech: 0
Size 5.35 GB
Completato 0x
Aggiunto 07.12.20 - 00:12:31
Uploader   ArMor
Votazione (Voti: 1)


Condividi questo bittorrent:


html/blog:


bbcode/forum:




Aggiungi Commento