* Dettagli Torrent   globale  | Commenti (0) 


- Attacco.al.Potere.3.Angel.Has.Fallen.2019.UHD.BluRay.2160p.DTS.iTA.ENG.Subs.x265-BJL.mkv -


Download via torrent:
Categoria bittorrent BDRip
Descrizione




[size=36pt]Attacco Al Potere 3 - Angel Has Fallen[/size]




Titolo Originale: Angel Has Fallen
Anno: 2019
Genere: Action, Thriller
Durata: 121
Nazione:  United States
Regista: Ric Roman Waugh
Sceneggiatura: Robert Mark Kamen, Matt Cook, Ric Roman Waugh
Produzione: Millennium Films, G-BASE, Campbell Grobman Films, Cinesite, Eclectic Pictures, Visit Portugal, Picture Portugal, Canadian Film or Video Production Tax Credit (CPTC), Nu Boyana Film Studios
Cast: Gerard Butler, Frederick Schmidt, Danny Huston, Rocci Williams, Piper Perabo, Harry Ditson, Linda John-Pierre, Lance Reddick, Ori Pfeffer, Morgan Freeman, Jasmine Hyde, Ian Porter, Laurel Lefkow, Michael Landes, Mark Arnold, Kerry Shale, Tim Blake Nelson, John Strong, Mark Basnight, Jessica Cobley



Attacco al Potere 3 - Angels Has Fallen, il film diretto da Ric Roman Waugh, vede il ritorno di Gerard Butler nei panni dell'agente dei servizi segreti Mike Banning. In questo terzo capitolo dell'adrenalinica saga action assisteremo a una sorprendente e inaspettata svolta: sarà infatti il nostro eroe Banning ad essere costretto alla fuga, braccato dalla polizia e dagli agenti dell'FBI. Accusato di essere un nemico dello Stato e di aver addirittura attentato alla vita del Presidente degli Stati Uniti, Allan Trumbull (Morgan Freeman), di cui è la guardia personale, Banning è costretto a cercherà di scoprire e rivelare la vera minaccia. Ad aiutarlo a scagionarsi troverà al suo fianco il padre, interpretato da Nick Nolte, new entry nel cast.Tra gli altri interpreti del film troviamo Jada Pinkett Smith, Lance Reddick, Danny Huston, Piper Perabo e Tim Blake Nelson nel ruolo del vice presidente degli Stati Uniti Kirby.


[spoiler]

[/spoiler]


[spoiler]General
Unique ID                   : 142368639035889232536952976232564168251 (0x6B1B33D7705FBE252CE7CCCB68C0963B)
Complete name               : Attacco.al.Potere.3.Angel.Has.Fallen.2019.UHD.BluRay.2160p.DTS.iTA.ENG.Subs.x265-BJL.mkv
Format                      : Matroska
Format version              : Version 4
File size                   : 19.1 GiB
Duration                    : 2 h 1 min
Overall bit rate            : 22.5 Mb/s
Encoded by                  : BJL
Encoded date                : UTC 2020-10-16 16:27:42
Writing application         : mkvmerge v51.0.0 ('I Wish&#39 64-bit
Writing library             : libebml v1.4.0 + libmatroska v1.6.2
Cover                       : Yes
Attachments                 : cover.png
DATA_RILASCIO               : 2019
IMDb                        : tt6189022
ORIGINAL_MEDIA              : BluRay UHD + BluRay
TITOLO                      : Attacco al potere 3 - Angel Has Fallen (Waugh, 2019)
TRAMA                       : Attacco al Potere 3 - Angels Has Fallen, il film diretto da Ric Roman Waugh, vede il ritorno di Gerard Butler nei panni dell'agente dei servizi segreti Mike Banning. In questo terzo capitolo dell'adrenalinica saga action assisteremo a una sorprendente e inaspettata svolta: sara' infatti il nostro eroe Banning ad essere costretto alla fuga, braccato dalla polizia e dagli agenti dell'FBI. Accusato di essere un nemico dello Stato e di aver addirittura attentato alla vita del Presidente degli Stati Uniti, Allan Trumbull (Morgan Freeman), di cui e' la guardia personale, Banning e' costretto a cercare di scoprire e rivelare la vera minaccia. Ad aiutarlo a scagionarsi trovera' al suo fianco il padre, interpretato da Nick Nolte, new entry nel cast. Tra gli altri interpreti del film troviamo Jada Pinkett Smith, Lance Reddick, Danny Huston, Piper Perabo e Tim Blake Nelson nel ruolo del vice presidente degli Stati Uniti Kirby.

Video
ID                          : 1
Format                      : HEVC
Format/Info                 : High Efficiency Video Coding
Format profile              : Main [email protected]@High
HDR format                  : SMPTE ST 2086, HDR10 compatible
Codec ID                    : V_MPEGH/ISO/HEVC
Duration                    : 2 h 0 min
Bit rate                    : 19.5 Mb/s
Width                       : 3 840 pixels
Height                      : 1 606 pixels
Display aspect ratio        : 2.40:1
Frame rate mode             : Constant
Frame rate                  : 24.000 FPS
Color space                 : YUV
Chroma subsampling          : 4:2:0 (Type 2)
Bit depth                   : 10 bits
Bits/(Pixel*Frame)          : 0.131
Stream size                 : 16.4 GiB (86%)
Title                       : Video Bitrate=19460 kbps - Avg.DRF=21.34 [Encoded by BJL]
Writing library             : x265 3.4+26-ga82c6c7a7:[Windows][GCC 10.2.1][64 bit] 10bit
Encoding settings           : cpuid=1049583 / frame-threads=3 / numa-pools=12 / wpp / no-pmode / no-pme / no-psnr / no-ssim / log-level=2 / input-csp=1 / input-res=3840x1606 / interlace=0 / total-frames=174217 / level-idc=51 / high-tier=1 / uhd-bd=0 / ref=4 / no-allow-non-conformance / repeat-headers / annexb / no-aud / hrd / info / hash=0 / no-temporal-layers / open-gop / min-keyint=24 / keyint=250 / gop-lookahead=0 / bframes=10 / b-adapt=2 / b-pyramid / bframe-bias=0 / rc-lookahead=30 / lookahead-slices=4 / scenecut=40 / hist-scenecut=0 / radl=0 / no-splice / no-intra-refresh / ctu=64 / min-cu-size=8 / rect / no-amp / max-tu-size=32 / tu-inter-depth=1 / tu-intra-depth=1 / limit-tu=0 / rdoq-level=2 / dynamic-rd=0.00 / no-ssim-rd / signhide / no-tskip / nr-intra=0 / nr-inter=0 / no-constrained-intra / no-strong-intra-smoothing / max-merge=3 / limit-refs=3 / limit-modes / me=3 / subme=4 / merange=57 / temporal-mvp / no-frame-dup / no-hme / weightp / weightb / no-analyze-src-pics / deblock=-3:-3 / no-sao / no-sao-non-deblock / rd=4 / selective-sao=0 / no-early-skip / rskip / no-fast-intra / no-tskip-fast / no-cu-lossless / no-b-intra / no-splitrd-skip / rdpenalty=0 / psy-rd=2.00 / psy-rdoq=1.00 / no-rd-refine / no-lossless / cbqpoffs=0 / crqpoffs=0 / rc=crf / crf=16.9 / qcomp=0.60 / qpstep=4 / stats-write=0 / stats-read=0 / vbv-maxrate=160000 / vbv-bufsize=160000 / vbv-init=0.9 / min-vbv-fullness=50.0 / max-vbv-fullness=80.0 / crf-max=0.0 / crf-min=0.0 / ipratio=1.40 / pbratio=1.30 / aq-mode=3 / aq-strength=0.80 / cutree / zone-count=1 / zones: / start-frame=162500 / end-frame=174217 / qp=23 / no-strict-cbr / qg-size=32 / no-rc-grain / qpmax=69 / qpmin=0 / no-const-vbv / sar=1 / overscan=0 / videoformat=5 / range=0 / colorprim=9 / transfer=16 / colormatrix=9 / chromaloc=1 / chromaloc-top=2 / chromaloc-bottom=2 / display-window=0 / master-display=G(13250,34500)B(7500,3000)R(34000,16000)WP(15635,16450)L(10000000,10) / cll=1000,634 / min-luma=0 / max-luma=1023 / log2-max-poc-lsb=8 / vui-timing-info / vui-hrd-info / slices=1 / no-opt-qp-pps / no-opt-ref-list-length-pps / no-multi-pass-opt-rps / scenecut-bias=0.05 / hist-threshold=0.03 / no-opt-cu-delta-qp / no-aq-motion / hdr10 / hdr10-opt / no-dhdr10-opt / no-idr-recovery-sei / analysis-reuse-level=0 / analysis-save-reuse-level=0 / analysis-load-reuse-level=0 / scale-factor=0 / refine-intra=0 / refine-inter=0 / refine-mv=1 / refine-ctu-distortion=0 / no-limit-sao / ctu-info=0 / no-lowpass-dct / refine-analysis-type=0 / copy-pic=1 / max-ausize-factor=1.0 / no-dynamic-refine / no-single-sei / no-hevc-aq / no-svt / no-field / qp-adaptation-range=1.00 / no-scenecut-aware-qpconformance-window-offsets / right=0 / bottom=0 / decoder-max-rate=0 / no-vbv-live-multi-pass
Default                     : Yes
Forced                      : No
Color range                 : Limited
Color primaries             : BT.2020
Transfer characteristics    : PQ
Matrix coefficients         : BT.2020 non-constant
Mastering display color pri : Display P3
Mastering display luminance : min: 0.0010 cd/m2, max: 1000 cd/m2
Maximum Content Light Level : 1000 cd/m2
Maximum Frame-Average Light : 634 cd/m2

Audio #1
ID                          : 2
Format                      : DTS
Format/Info                 : Digital Theater Systems
Codec ID                    : A_DTS
Duration                    : 2 h 1 min
Bit rate mode               : Constant
Bit rate                    : 1 509 kb/s
Channel(s)                  : 6 channels
Channel layout              : C L R Ls Rs LFE
Sampling rate               : 48.0 kHz
Frame rate                  : 93.750 FPS (512 SPF)
Bit depth                   : 24 bits
Compression mode            : Lossy
Stream size                 : 1.28 GiB (7%)
Title                       : Italiano DTS 5.1
Language                    : Italian
Default                     : Yes
Forced                      : No

Audio #2
ID                          : 3
Format                      : DTS
Format/Info                 : Digital Theater Systems
Codec ID                    : A_DTS
Duration                    : 2 h 1 min
Bit rate mode               : Constant
Bit rate                    : 1 509 kb/s
Channel(s)                  : 6 channels
Channel layout              : C L R Ls Rs LFE
Sampling rate               : 48.0 kHz
Frame rate                  : 93.750 FPS (512 SPF)
Bit depth                   : 24 bits
Compression mode            : Lossy
Stream size                 : 1.28 GiB (7%)
Title                       : English DTS 5.1
Language                    : English
Default                     : No
Forced                      : No

Text #1
ID                          : 4
Format                      : PGS
Codec ID                    : S_HDMV/PGS
Codec ID/Info               : Picture based subtitle format used on BDs/HD-DVDs
Duration                    : 1 h 51 min
Bit rate                    : 30.9 kb/s
Count of elements           : 2628
Stream size                 : 24.6 MiB (0%)
Title                       : Italiano Normal
Language                    : Italian
Default                     : No
Forced                      : No

Text #2
ID                          : 5
Format                      : PGS
Codec ID                    : S_HDMV/PGS
Codec ID/Info               : Picture based subtitle format used on BDs/HD-DVDs
Duration                    : 1 h 52 min
Bit rate                    : 57.7 kb/s
Count of elements           : 3092
Stream size                 : 46.5 MiB (0%)
Title                       : English SDH
Language                    : English
Default                     : No
Forced                      : No

Menu
00:00:00.000                : :Chapter 01
00:09:34.708                : :Chapter 02
00:19:35.791                : :Chapter 03
00:32:29.375                : :Chapter 04
00:39:47.875                : :Chapter 05
00:50:55.958                : :Chapter 06
00:59:22.791                : :Chapter 07
01:10:44.458                : :Chapter 08
01:21:11.750                : :Chapter 09
01:29:34.708                : :Chapter 10
01:39:37.458                : :Chapter 11
01:47:58.500                : :Chapter 12[/spoiler]
Info: Per scaricare devi usare un client come uTorrent o Transmission
AnnounceURL
udp://tracker.opentrackr.org:1337/announce
Hash 652332c1e8f3cb6112b81ca37266f23180af81df
Peers seeds: 22 , leech: 32
Size 19.09 GB
Completato 270x
Aggiunto 22.11.20 - 01:11:09
Uploader Anonymous
Votazione (Voti: 0)


Condividi questo bittorrent:


html/blog:


bbcode/forum:




Aggiungi Commento