* Dettagli Torrent   globale  | Commenti (0) 


- ---- Le Iene Show 17/11/2020 ---- H264 AAC -


Download via torrent:
Categoria bittorrent DVD
Descrizione
LE IENE 17/11/2020 [/SIZE]



.: Scheda del filmato :.

Anno: 2020
Genere: INCHIESTA
Regia: DAVIDE PARENTI

.: Descrizione :.

Programma di approfondimento e di attuailtà che propone inchieste e reportage facendo uso di uno stile irriverente e satirico.

.: Scheda tecnica :.

General
Unique ID                                : 177514081471929400202978009480675610319 (0x858BF7EFFDA29F2F3494EB052A8A4ECF)
Complete name                            : C:Le iene 17-11-2020.mkv
Format                                   : Matroska
Format version                           : Version 4
File size                                : 3.62 GiB
Duration                                 : 3 h 9 min
Overall bit rate mode                    : Variable
Overall bit rate                         : 2 737 kb/s
Encoded date                             : UTC 2020-11-18 00:54:10
Writing application                      : mkvmerge v51.0.0 ('I Wish&#39 64-bit
Writing library                          : libebml v1.4.0 + libmatroska v1.6.2

Video
ID                                       : 1
Format                                   : AVC
Format/Info                              : Advanced Video Codec
Format profile                           : [email protected]
Format settings                          : CABAC / 3 Ref Frames
Format settings, CABAC                   : Yes
Format settings, Reference frames        : 3 frames
Codec ID                                 : V_MPEG4/ISO/AVC
Duration                                 : 3 h 9 min
Bit rate mode                            : Variable
Bit rate                                 : 2 608 kb/s
Maximum bit rate                         : 25.0 Mb/s
Width                                    : 1 920 pixels
Height                                   : 1 080 pixels
Display aspect ratio                     : 16:9
Frame rate mode                          : Constant
Frame rate                               : 25.000 FPS
Color space                              : YUV
Chroma subsampling                       : 4:2:0
Bit depth                                : 8 bits
Scan type                                : Progressive
Bits/(Pixel*Frame)                       : 0.050
Stream size                              : 3.44 GiB (95%)
Writing library                          : x264 core 161 r3018 db0d417
Encoding settings                        : cabac=1 / ref=3 / deblock=1:0:0 / analyse=0x3:0x113 / me=hex / subme=7 / psy=1 / psy_rd=1.00:0.00 / mixed_ref=1 / me_range=16 / chroma_me=1 / trellis=1 / 8x8dct=1 / cqm=0 / deadzone=21,11 / fast_pskip=1 / chroma_qp_offset=-2 / threads=34 / lookahead_threads=5 / sliced_threads=0 / nr=0 / decimate=1 / interlaced=0 / bluray_compat=0 / constrained_intra=0 / bframes=3 / b_pyramid=0 / b_adapt=1 / b_bias=0 / direct=1 / weightb=1 / open_gop=0 / weightp=2 / keyint=250 / keyint_min=25 / scenecut=40 / intra_refresh=0 / rc_lookahead=40 / rc=2pass / mbtree=1 / bitrate=2608 / ratetol=1.0 / qcomp=0.60 / qpmin=0 / qpmax=69 / qpstep=4 / cplxblur=20.0 / qblur=0.5 / vbv_maxrate=25000 / vbv_bufsize=25000 / nal_hrd=vbr / filler=0 / ip_ratio=1.40 / aq=1:1.00
Default                                  : Yes
Forced                                   : No
Color range                              : Limited
Color primaries                          : BT.709
Transfer characteristics                 : BT.709
Matrix coefficients                      : BT.709

Audio
ID                                       : 2
Format                                   : AAC LC
Format/Info                              : Advanced Audio Codec Low Complexity
Codec ID                                 : A_AAC-2
Duration                                 : 3 h 9 min
Bit rate                                 : 128 kb/s
Channel(s)                               : 2 channels
Channel layout                           : L R
Sampling rate                            : 48.0 kHz
Frame rate                               : 46.875 FPS (1024 SPF)
Compression mode                         : Lossy
Stream size                              : 173 MiB (5%)
Default                                  : Yes
Forced                                   : No






.: Note :.



Orario di seed e Banda disponibile:
24 / 24 Ai primi 10 completati
Info: Per scaricare devi usare un client come uTorrent o Transmission
AnnounceURL
udp://tracker.coppersurfer.tk:6969/announce
Hash da457d76b55254cc2cb8b9d09a0b3086bdb00b99
Peers seeds: 0 , leech: 0
Size 3.62 GB
Completato 0x
Aggiunto 18.11.20 - 11:11:14
Uploader   Sfrank77
Votazione (Voti: 0)


Condividi questo bittorrent:


html/blog:


bbcode/forum:




Aggiungi Commento