* Dettagli Torrent   globale  | Commenti (0) 


- The.Secrets.Le.Verita.Nascoste.2020.iTA.MD.AC3.ENG.1080p.WEBDL.x264-ODS -


Download via torrent:
Categoria bittorrent Screener
Descrizione
[img]https://encrypted-tbn1.gstatic.com/images?q=tbn:ANd9GcR6vKuGf5gcpUqMkB8slyJ906HlnaOq5Zau_LDWm24vcX2Vd75f[/img]


The Secret - Le Verità Nascoste

Titolo originale: The Secrets We Keep
Conosciuto anche come:
Nazione: U.S.A.
Anno: 2020
Genere: Thriller
Durata: 97'
Regia: Yuval Adler
Sito ufficiale:
Social network:

Cast: Noomi Rapace, Joel Kinnaman, Chris Messina, Amy Seimetz, Victoria Hill, Lucy Faust, David Maldonado, Ritchie Montgomery, Ed Amatrudo, Jeff Pope, Miluette Nalin, Frank J. Monteleone, Kadrolsha Ona Carole, Michelle L. Clarke, Angela Abadie, Michael Biss, Jackson Dean Vincent, Madison Paige Jones
Produzione: AGC Studios, Di Bonaventura Pictures, Echo Lake Entertainment
Distribuzione: Vision Distribution, Cloud9
Data di uscita: 15 Ottobre 2020 (cinema)

Trama:
Maja è sopravvissuta agli orrori della guerra. Alla fine degli anni ‘50 ha una vita serena in America, insieme a suo marito Lewis. Un giorno, lungo la strada, le sembra di riconoscere il carnefice che torturava lei e la sua famiglia durante la guerra. Dopo vari dubbi e appostamenti, decide di rapirlo, per vendicarsi delle atrocità che crede abbia commesso.

[youtube]https://www.youtube.com/watch?v=BrkznpRPANo[/youtube]

[spoiler]Video
ID                          : 1
Format                      : AVC
Format/Info                 : Advanced Video Codec
Format profile              : [email protected]
Format settings             : CABAC / 4 Ref Frames
Format settings, CABAC      : Yes
Format settings, Reference  : 4 frames
Format settings, GOP        : M=3, N=30
Codec ID                    : V_MPEG4/ISO/AVC
Duration                    : 1 h 38 min
Bit rate mode               : Constant
Bit rate                    : 11.1 Mb/s
Width                       : 1 920 pixels
Height                      : 804 pixels
Display aspect ratio        : 2.40:1
Frame rate mode             : Constant
Frame rate                  : 30.000 FPS
Color space                 : YUV
Chroma subsampling          : 4:2:0
Bit depth                   : 8 bits
Scan type                   : Progressive
Bits/(Pixel*Frame)          : 0.240
Stream size                 : 7.47 GiB (92%)
Default                     : Yes
Forced                      : No
Color range                 : Limited
Color primaries             : BT.709
Transfer characteristics    : BT.709
Matrix coefficients         : BT.709

Audio #1
ID                          : 2
Format                      : MPEG Audio
Format version              : Version 1
Format profile              : Layer 3
Format settings             : Joint stereo
Codec ID                    : A_MPEG/L3
Codec ID/Hint               : MP3
Duration                    : 1 h 38 min
Bit rate mode               : Variable
Bit rate                    : 320 kb/s
Channel(s)                  : 2 channels
Sampling rate               : 48.0 kHz
Frame rate                  : 41.667 FPS (1152 SPF)
Compression mode            : Lossy
Stream size                 : 225 MiB (3%)
Title                       : MD ODS
Writing library             : LAME3.99.5
Language                    : Italian
Default                     : Yes
Forced                      : Yes

Audio #2
ID                          : 3
Format                      : AC-3
Format/Info                 : Audio Coding 3
Commercial name             : Dolby Digital
Codec ID                    : A_AC3
Duration                    : 1 h 38 min
Bit rate mode               : Constant
Bit rate                    : 640 kb/s
Channel(s)                  : 6 channels
Channel layout              : L R C LFE Ls Rs
Sampling rate               : 48.0 kHz
Frame rate                  : 31.250 FPS (1536 SPF)
Compression mode            : Lossy
Stream size                 : 450 MiB (5%)
Language                    : English
Service kind                : Complete Main
Default                     : No
Forced                      : No

[/spoiler]
Info: Per scaricare devi usare un client come uTorrent o Transmission
AnnounceURL
udp://tracker.torrent.eu.org:451/announce
Hash 68cefef3b949fa96911c827d55b25692ea07c0a6
Peers seeds: 9 , leech: 2
Size 8.14 GB
Completato 179x
Aggiunto 19.10.20 - 21:10:40
Uploader   zagor1961
Votazione (Voti: 0)


Condividi questo bittorrent:


html/blog:


bbcode/forum:




Aggiungi Commento