* Dettagli Torrent   globale  | Commenti (0) 


- Guida per babysitter a caccia di mostri (2020) ITA-ENG Ac3 5.1 WebRip 1080p H264 [ArMor] -


Download via torrent:
Categoria bittorrent BDRip
Descrizione







Titolo originale A Babysitter's Guide to Monster Hunting
Data di uscita 14 Ottobre 2020 (Italia, Streaming)
Genere Commedia , Fantastico , Ragazzi
Anno 2020
Regia Rachel Talalay
Attori Tamara Smart, Tom Felton, Oona Laurence, Indya Moore, Momona Tamada, Cameron Bancroft, Crystal Balint, Ty Consiglio, Ian Hoch, Ashton Arbab, Linden Porco, Anisa Harris, Troy Leigh-Anne Johnson
Paese USA
Durata 94 Min
Distribuzione Netflix



È arrivato Halloween, ma non tutti gli adolescenti possono esattamente fare ciò che vorrebbero. Alla liceale Kelly Ferguson, infatti, toccherà fare da babysitter al piccolo Jacob Zellman. Quello che la ragazza non può immaginare è che un noiosissimo impiccio si trasformerà in realtà in una imprevedibile avventura.

A babysitter embarks on a mission to save a child who's been abducted by monsters.













General
Unique ID                                : 183855805588311526130657931069079225997 (0x8A5157139FE1E59BBB48A9A16FB1068D)
Complete name                            : Guida per babysitter a caccia di mostri (2020) ITA-ENG Ac3 5.1 WebRip 1080p H264 [ArMor].mkv
Format                                   : Matroska
Format version                           : Version 4
File size                                : 2.73 GiB
Duration                                 : 1 h 38 min
Overall bit rate                         : 3 954 kb/s
Encoded date                             : UTC 2020-10-15 17:17:39
Writing application                      : mkvmerge v15.0.0 ('Duel with the Devil&#39 64-bit
Writing library                          : libebml v1.3.5 + libmatroska v1.4.5 / Lavf58.29.100

Video
ID                                       : 1
Format                                   : AVC
Format/Info                              : Advanced Video Codec
Format profile                           : [email protected]
Format settings                          : CABAC / 4 Ref Frames
Format settings, CABAC                   : Yes
Format settings, Reference frames        : 4 frames
Codec ID                                 : V_MPEG4/ISO/AVC
Duration                                 : 1 h 38 min
Bit rate                                 : 3 056 kb/s
Width                                    : 1 920 pixels
Height                                   : 872 pixels
Display aspect ratio                     : 2.2:1
Frame rate mode                          : Constant
Frame rate                               : 24.000 FPS
Color space                              : YUV
Chroma subsampling                       : 4:2:0
Bit depth                                : 8 bits
Scan type                                : Progressive
Bits/(Pixel*Frame)                       : 0.076
Stream size                              : 2.11 GiB (77%)
Writing library                          : x264 core 157 r2935 545de2f
Encoding settings                        : cabac=1 / ref=2 / deblock=1:0:0 / analyse=0x1:0x111 / me=hex / subme=6 / psy=1 / psy_rd=1.00:0.00 / mixed_ref=1 / me_range=16 / chroma_me=1 / trellis=1 / 8x8dct=0 / cqm=0 / deadzone=21,11 / fast_pskip=1 / chroma_qp_offset=-2 / threads=18 / lookahead_threads=3 / sliced_threads=0 / nr=0 / decimate=1 / interlaced=0 / bluray_compat=0 / constrained_intra=0 / bframes=3 / b_pyramid=2 / b_adapt=1 / b_bias=0 / direct=1 / weightb=1 / open_gop=0 / weightp=1 / keyint=240 / keyint_min=24 / scenecut=40 / intra_refresh=0 / rc_lookahead=30 / rc=crf / mbtree=1 / crf=21.0 / qcomp=0.60 / qpmin=0 / qpmax=69 / qpstep=4 / vbv_maxrate=20000 / vbv_bufsize=25000 / crf_max=0.0 / nal_hrd=none / filler=0 / ip_ratio=1.40 / aq=1:1.00
Default                                  : Yes
Forced                                   : No
Color range                              : Limited
Color primaries                          : BT.709
Transfer characteristics                 : BT.709
Matrix coefficients                      : BT.709

Audio #1
ID                                       : 2
Format                                   : AC-3
Format/Info                              : Audio Coding 3
Commercial name                          : Dolby Digital
Codec ID                                 : A_AC3
Duration                                 : 1 h 38 min
Bit rate mode                            : Constant
Bit rate                                 : 448 kb/s
Channel(s)                               : 6 channels
Channel layout                           : L R C LFE Ls Rs
Sampling rate                            : 48.0 kHz
Frame rate                               : 31.250 FPS (1536 SPF)
Compression mode                         : Lossy
Stream size                              : 317 MiB (11%)
Title                                    : WEBDL EAC3
Language                                 : Italian
Service kind                             : Complete Main
Default                                  : Yes
Forced                                   : No

Audio #2
ID                                       : 3
Format                                   : AC-3
Format/Info                              : Audio Coding 3
Commercial name                          : Dolby Digital
Codec ID                                 : A_AC3
Duration                                 : 1 h 38 min
Bit rate mode                            : Constant
Bit rate                                 : 448 kb/s
Channel(s)                               : 6 channels
Channel layout                           : L R C LFE Ls Rs
Sampling rate                            : 48.0 kHz
Frame rate                               : 31.250 FPS (1536 SPF)
Compression mode                         : Lossy
Stream size                              : 317 MiB (11%)
Title                                    : EAC3
Language                                 : English
Service kind                             : Complete Main
Default                                  : No
Forced                                   : No


Info: Per scaricare devi usare un client come uTorrent o Transmission
AnnounceURL
udp://tracker.coppersurfer.tk:6969/announce
Hash 6d346cffaee64e17c1c58ea4e6e3a1c245bb9702
Peers seeds: 17 , leech: 2
Size 1.13 GB
Completato 421x
Aggiunto 16.10.20 - 23:10:58
Uploader   ArMor
Votazione (Voti: 0)


Condividi questo bittorrent:


html/blog:


bbcode/forum:




Aggiungi Commento