* Dettagli Torrent   globale  | Commenti (0) 


- Arctic.Un.Avventura.Glaciale.2019.iTA.AC3.ENG.DTS-HD.MA.1080p.Bluray.x264-ODS -


Download via torrent:
Categoria bittorrent BDRip
Descrizione


[size=14pt]...::: INFO :::...[/size]
Regista: Aaron Woodley
Genere: Animazione
Anno: 2019
Paese: Gran Bretagna, Corea del Sud, Canada, USA
Durata: 92 min
Distribuzione: Notorious Pictures

[size=14pt]...::: TRAMA :::...[/size]
Arctic - Un'avventura glaciale, il film diretto da Aaron Woodley, è la storia di un gruppo di eroi che insieme provano a mettere in salvo l'Artico, minacciato dall'oscuro Doc Walrus. Tra questi c'è la volpe artica Swifty, che lavora nell'Arctic Blast Delivery Service, la sala postale del polo. Il suo sogno più grande, però, è entrare a far parte degli husky, i corrieri postali, e per realizzarlo si avventura con una slitta per consegnare un pacco misterioso. Una volta giunto a destinazione, Swifty s'imbatte nel malvagio Otto Von Walrus e nella sua fortezza, sorvegliata dal suo esercito. La volpe scopre il perfido piano del genio del male, intenzionato a perforare il suolo artico per rilasciare gas così da sciogliere il polo e conquistare tutto il mondo. Per fermarlo, Swifty chiederà aiuto ai suoi tre amici: il nevrotico orso polare PB, l'albatro Lemmy e la volpina Jade.

[size=14pt]...::: SCREENSHOT :::...[/size]


[size=14pt]...::: REPORT :::...[/size]
[spoiler]Format                      : Matroska
Format version              : Version 4
File size                   : 11.9 GiB
Duration                    : 1 h 32 min
Overall bit rate mode       : Variable
Overall bit rate            : 18.3 Mb/s
Encoded date                : UTC 2020-09-22 21:31:54
Writing application         : mkvmerge v50.0.0 ('Awakenings&#39 64-bit
Writing library             : libebml v1.4.0 + libmatroska v1.6.2

Video
ID                          : 3
Format                      : AVC
Format/Info                 : Advanced Video Codec
Format profile              : [email protected]
Format settings             : CABAC / 4 Ref Frames
Format settings, CABAC      : Yes
Format settings, Reference  : 4 frames
Format settings, GOP        : M=3, N=24
Codec ID                    : V_MPEG4/ISO/AVC
Duration                    : 1 h 32 min
Bit rate mode               : Constant
Bit rate                    : 14.3 Mb/s
Width                       : 1 920 pixels
Height                      : 804 pixels
Display aspect ratio        : 2.40:1
Frame rate mode             : Constant
Frame rate                  : 23.976 (24000/1001) FPS
Color space                 : YUV
Chroma subsampling          : 4:2:0
Bit depth                   : 8 bits
Scan type                   : Progressive
Bits/(Pixel*Frame)          : 0.387
Stream size                 : 9.05 GiB (76%)
Default                     : Yes
Forced                      : No
Color range                 : Limited
Color primaries             : BT.709
Transfer characteristics    : BT.709
Matrix coefficients         : BT.709

Audio #1
ID                          : 1
Format                      : DTS XLL
Format/Info                 : Digital Theater Systems
Commercial name             : DTS-HD Master Audio
Codec ID                    : A_DTS
Duration                    : 1 h 32 min
Bit rate mode               : Variable
Bit rate                    : 3 856 kb/s
Channel(s)                  : 6 channels
Channel layout              : C L R Ls Rs LFE
Sampling rate               : 48.0 kHz
Frame rate                  : 93.750 FPS (512 SPF)
Bit depth                   : 24 bits
Compression mode            : Lossless
Stream size                 : 2.50 GiB (21%)
Title                       : English
Language                    : English
Default                     : No
Forced                      : No

Audio #2
ID                          : 4
Format                      : AC-3
Format/Info                 : Audio Coding 3
Commercial name             : Dolby Digital
Codec ID                    : A_AC3
Duration                    : 1 h 32 min
Bit rate mode               : Constant
Bit rate                    : 448 kb/s
Channel(s)                  : 6 channels
Channel layout              : L R C LFE Ls Rs
Sampling rate               : 48.0 kHz
Frame rate                  : 31.250 FPS (1536 SPF)
Compression mode            : Lossy
Stream size                 : 298 MiB (2%)
Title                       : AC3 WEBDL ODS
Language                    : Italian
Service kind                : Complete Main
Default                     : Yes
Forced                      : Yes

Text
ID                          : 2
Format                      : PGS
Muxing mode                 : zlib
Codec ID                    : S_HDMV/PGS
Codec ID/Info               : Picture based subtitle format used on BDs/HD-DVDs
Duration                    : 1 h 31 min
Bit rate                    : 44.0 kb/s
Count of elements           : 3202
Stream size                 : 28.8 MiB (0%)
Title                       : English (SDH)
Language                    : English
Default                     : No
Forced                      : No

Menu
00:00:00.000                : :Chapter 01
00:06:18.628                : :Chapter 02
00:12:54.524                : :Chapter 03
00:18:57.553                : :Chapter 04
00:23:55.267                : :Chapter 05
00:27:27.521                : :Chapter 06
00:33:06.151                : :Chapter 07
00:39:50.388                : :Chapter 08
00:47:18.002                : :Chapter 09
00:52:12.796                : :Chapter 10
00:58:18.370                : :Chapter 11
01:04:20.607                : :Chapter 12
01:12:02.193                : :Chapter 13
01:16:21.744                : :Chapter 14
01:20:27.489                : :Chapter 15
01:26:59.548                : :Chapter 16
[/spoiler]
Info: Per scaricare devi usare un client come uTorrent o Transmission
AnnounceURL
udp://tracker.torrent.eu.org:451/announce
Hash 0b04a2a78bd24e82ba7485da81e69e01bac60803
Peers seeds: 17 , leech: 7
Size 11.86 GB
Completato 297x
Aggiunto 23.09.20 - 10:09:36
Uploader   zagor1961
Votazione (Voti: 0)


Condividi questo bittorrent:


html/blog:


bbcode/forum:




Aggiungi Commento