* Dettagli Torrent   globale  | Commenti (0) 


- La.Rosa.Velenosa.2019.iTALiAN.AC3.WEBRip.x264-ODS -


Download via torrent:
Categoria bittorrent BDRip
Descrizione


[size=14pt]...::: INFO :::...[/size]
SCENEGGIATURA/AUTORE: Richard Salvatore, Francesco Cinquemani, Luca Giliberto
COLONNA SONORA: Aldo Shllaku, Marcus Sjowall
FOTOGRAFIA: Terry Stacey
COSTUMI: Camille Jumelle, Francesca Perticarini
PRODUTTORE: Avi Lerner, David E. Ornston, Richard Salvatore, Andrea Iervolino, Jeff Elliott, Oscar Generale, Andrey Georgiev
PRODUZIONE: Usa
GENERE: Poliziesco, Thriller
DURATA: 98 minuti

[size=14pt]...::: TRAMA :::...[/size]
Anni '70. Carson Philipps è un investigatore privato intento a scappare da alcuni scagnozzi di Los Angeles, dopo aver strappato Violet, figlia del boss locale, dalle grinfie del padre e averla aiutata a scappare. Per sfuggire da chi lo vorrebbe morto, accetta un caso lontano da Los Angeles, imbattendosi in un losco giro di scommesse clandestine che coinvolge il mondo del football, l'ambiguo dottor Mitchell e Doc, un potente boss della zona. Le cose si complicano quando il quarterback della squadra locale, idolo della città, muore in campo durante una partita e la principale sospettata diventa Becky, la giovane moglie. Becky è anche la figlia di Jayne, la donna che Carson ha sempre amato e che aveva abbandonato vent'anni prima. Carson scopre ben presto che Becky è anche sua figlia. Così inizia per lui l'indagine più importante della sua vita, volta a fare cadere le accuse su Becky. E avrà contro tutti, da Doc, al dottor Mitchell, i piccoli delinquenti locali e la stessa polizia. Per non parlare degli scagnozzi di Los Angeles che non hanno dimenticato lo sgarro subito. Ma, nonostante questo, Carson farà di tutto per proteggere Becky e la stessa Jayne.

[size=14pt]...::: SCREENSHOT :::...[/size]


[size=14pt]...::: REPORT :::...[/size]
[spoiler]Format                      : Matroska
Format version              : Version 4
File size                   : 1.24 GiB
Duration                    : 1 h 43 min
Overall bit rate mode       : Constant
Overall bit rate            : 1 711 kb/s
Encoded date                : UTC 2020-09-08 18:26:43
Writing application         : mkvmerge v49.0.0 ('Sick Of Losing Soulmates&#39 64-bit
Writing library             : libebml v1.4.0 + libmatroska v1.6.1

Video
ID                          : 1
Format                      : AVC
Format/Info                 : Advanced Video Codec
Format profile              : [email protected]
Format settings             : CABAC / 1 Ref Frames
Format settings, CABAC      : Yes
Format settings, Reference  : 1 frame
Format settings, GOP        : M=1, N=25
Codec ID                    : V_MPEG4/ISO/AVC
Duration                    : 1 h 43 min
Bit rate mode               : Constant
Bit rate                    : 1 453 kb/s
Nominal bit rate            : 1 600 kb/s
Width                       : 768 pixels
Height                      : 432 pixels
Display aspect ratio        : 16:9
Frame rate mode             : Constant
Frame rate                  : 25.000 FPS
Color space                 : YUV
Chroma subsampling          : 4:2:0
Bit depth                   : 8 bits
Scan type                   : Progressive
Bits/(Pixel*Frame)          : 0.175
Stream size                 : 1.05 GiB (85%)
Default                     : Yes
Forced                      : No

Audio
ID                          : 2
Format                      : AC-3
Format/Info                 : Audio Coding 3
Commercial name             : Dolby Digital
Codec ID                    : A_AC3
Duration                    : 1 h 43 min
Bit rate mode               : Constant
Bit rate                    : 256 kb/s
Channel(s)                  : 6 channels
Channel layout              : L R C LFE Ls Rs
Sampling rate               : 48.0 kHz
Frame rate                  : 31.250 FPS (1536 SPF)
Compression mode            : Lossy
Stream size                 : 190 MiB (15%)
Service kind                : Complete Main
Default                     : Yes
Forced                      : No
[/spoiler]
Info: Per scaricare devi usare un client come uTorrent o Transmission
AnnounceURL
udp://tracker.torrent.eu.org:451/announce
Hash 045a3d5e6ece9a38c02d3fe7881ae62e2e45de91
Peers seeds: 109 , leech: 12
Size 1.24 GB
Completato 1852x
Aggiunto 09.09.20 - 18:09:01
Uploader   zagor1961
Votazione (Voti: 0)


Condividi questo bittorrent:


html/blog:


bbcode/forum:




Aggiungi Commento