* Dettagli Torrent   globale  | Commenti (1) 


- Mulan.2020.iTA.ENG.2160p.WEBRip.DDP5.1.Atmos.x265-ODS -


Download via torrent:
Categoria bittorrent BDRip
Descrizione


[size=14pt]...::: INFO :::...[/size]
Regista: Niki Caro
Genere: Avventura, Drammatico, Family
Anno: 2020
Paese: USA
Distribuzione: Walt Disney Pictures Italia

[size=14pt]...::: TRAMA :::...[/size]
Mulan, film diretto da Niki Caro, porta sul grande schermo in live-action l'omonimo classico della Disney. È la storia di una giovane donna di nome Hua Mulan (Liu Yifei), figlia maggiore di un rispettato guerriero della Cina durante gli anni della dinastia Sui. La ragazza è sveglia, piena di energie, aggraziata, ma anche molto agile e determinata. Ormai giunta in età adulta, a Mulan viene imposto di sposare un uomo, scelto dalla famiglia e dalla mezzana per lei e, nonostante la giovane non si senta pronta per il matrimonio, accetta la decisione senza opporsi.
Quando il Paese subisce un attacco dal nord da parte degli Unni, l'imperatore ordina che ogni famiglia contribuisca al bene della nazione mandando un uomo in guerra. Per evitare al padre, ormai anziano e malato, di arruolarsi nell'Armata Imperiale come unico maschio dei Hua, Mulan si traveste da uomo, combattendo con il nome di Hua Jun. La ragazza dimostra di essere una valida guerriera, ma il suo travestimento funzionerà davvero?

[size=14pt]...::: SCREENSHOT :::...[/size]


[size=14pt]...::: REPORT :::...[/size]
[spoiler]Format                                   : Matroska
Format version                           : Version 4
File size                                : 10.9 GiB
Duration                                 : 1 h 55 min
Overall bit rate                         : 13.5 Mb/s
Encoded date                             : UTC 2020-09-05 06:58:23
Writing application                      : mkvmerge v49.0.0 ('Sick Of Losing Soulmates&#39 64-bit
Writing library                          : libebml v1.4.0 + libmatroska v1.6.1

Video
ID                                       : 1
Format                                   : HEVC
Format/Info                              : High Efficiency Video Coding
Format profile                           : [email protected]@Main
Codec ID                                 : V_MPEGH/ISO/HEVC
Duration                                 : 1 h 54 min
Bit rate                                 : 12.3 Mb/s
Width                                    : 3 840 pixels
Height                                   : 1 600 pixels
Display aspect ratio                     : 2.40:1
Frame rate mode                          : Constant
Frame rate                               : 23.976 (24000/1001) FPS
Color space                              : YUV
Chroma subsampling                       : 4:2:0
Bit depth                                : 8 bits
Bits/(Pixel*Frame)                       : 0.084
Stream size                              : 9.91 GiB (91%)
Default                                  : Yes
Forced                                   : No
Color range                              : Limited
Color primaries                          : BT.709
Transfer characteristics                 : BT.709
Matrix coefficients                      : BT.709

Audio #1
ID                                       : 2
Format                                   : AC-3
Format/Info                              : Audio Coding 3
Commercial name                          : Dolby Digital
Codec ID                                 : A_AC3
Duration                                 : 1 h 54 min
Bit rate mode                            : Constant
Bit rate                                 : 448 kb/s
Channel(s)                               : 6 channels
Channel layout                           : L R C LFE Ls Rs
Sampling rate                            : 48.0 kHz
Frame rate                               : 31.250 FPS (1536 SPF)
Bit depth                                : 16 bits
Compression mode                         : Lossy
Stream size                              : 368 MiB (3%)
Title                                    : ita
Language                                 : Italian
Service kind                             : Complete Main
Default                                  : Yes
Forced                                   : Yes

Audio #2
ID                                       : 5
Format                                   : E-AC-3 JOC
Format/Info                              : Enhanced AC-3 with Joint Object Coding
Commercial name                          : Dolby Digital Plus with Dolby Atmos
Codec ID                                 : A_EAC3
Duration                                 : 1 h 55 min
Bit rate mode                            : Constant
Bit rate                                 : 768 kb/s
Channel(s)                               : 6 channels
Channel layout                           : L R C LFE Ls Rs
Sampling rate                            : 48.0 kHz
Frame rate                               : 31.250 FPS (1536 SPF)
Compression mode                         : Lossy
Delay relative to video                  : 16 ms
Stream size                              : 632 MiB (6%)
Title                                    : English
Language                                 : English
Service kind                             : Complete Main
Default                                  : No
Forced                                   : No
Complexity index                         : 16
Number of dynamic objects                : 15
Bed channel count                        : 1 channel
Bed channel configuration                : LFE

Text #1
ID                                       : 3
Format                                   : UTF-8
Codec ID                                 : S_TEXT/UTF8
Codec ID/Info                            : UTF-8 Plain Text
Duration                                 : 3 min 8 s
Bit rate                                 : 2 b/s
Count of elements                        : 2
Stream size                              : 67.0 Bytes (0%)
Title                                    : Italian
Language                                 : Italian
Default                                  : No
Forced                                   : No

Text #2
ID                                       : 4
Format                                   : UTF-8
Codec ID                                 : S_TEXT/UTF8
Codec ID/Info                            : UTF-8 Plain Text
Duration                                 : 1 h 54 min
Bit rate                                 : 27 b/s
Count of elements                        : 784
Stream size                              : 23.0 KiB (0%)
Title                                    : Italian
Language                                 : Italian
Default                                  : No
Forced                                   : No

Text #3
ID                                       : 6
Format                                   : UTF-8
Codec ID                                 : S_TEXT/UTF8
Codec ID/Info                            : UTF-8 Plain Text
Duration                                 : 1 h 50 min
Bit rate                                 : 35 b/s
Count of elements                        : 1150
Stream size                              : 28.5 KiB (0%)
Title                                    : English
Language                                 : English
Default                                  : No
Forced                                   : No
[/spoiler]
Info: Per scaricare devi usare un client come uTorrent o Transmission
AnnounceURL
udp://tracker.torrent.eu.org:451/announce
Hash 8b583f31042df7eaf9a9bc7f0ff6bccef3fc8579
Peers seeds: 98 , leech: 16
Size 10.89 GB
Completato 2841x
Aggiunto 05.09.20 - 13:09:01
Uploader   zagor1961
Votazione (Voti: 0)


Condividi questo bittorrent:


html/blog:


bbcode/forum:




Aggiungi Commento
Ultimi commenti
avatar     
Va a scatti in alcuni tratti
05/09 21.55
Tutti commenti (1)