* Dettagli Torrent   globale  | Commenti (0) 


- Primal.2019.iTALiAN.AC3.BDRip.x264-ODS -


Download via torrent:
Categoria bittorrent BDRip
Descrizione


[size=14pt]...::: INFO :::...[/size]
Regista: Nick Powell
Genere: Azione
Anno: 2019
Paese: USA
Durata: 97 min
Data di uscita: 1 Settembre 2020
Distribuzione: Notorious Pictures

[size=14pt]...::: TRAMA :::...[/size]
Primal, film diretto da Nick Powell, è la storia di Frank (Nicolas Cage), un cacciatore di animali rari della giungla amazzonica che, dopo aver catturato le bestie, le rivende agli zoo. Il bracconiere si ritrova su un mercantile greco con il suo bagaglio dall'Amazzonia, che comprende un rarissimo giaguaro bianco. Sulla nave viaggia anche un pericoloso criminale politico, che viene trasportato per essere estradato negli USA.
Due giorni dopo la partenza, il terrorista si dà alla fuga, liberando tutti gli animali imprigionati da Frank. Mentre le bestie seminano caos e tensione sulla nave, il cacciatore dovrà decidere se diventare un eroe e dare la caccia a una nuova specie, l'essere umano.

[size=14pt]...::: SCREENSHOT :::...[/size]


[size=14pt]...::: REPORT :::...[/size]
[spoiler]Format                                   : Matroska
Format version                           : Version 4
File size                                : 1.38 GiB
Duration                                 : 1 h 36 min
Overall bit rate                         : 2 042 kb/s
Encoded date                             : UTC 2020-09-02 16:37:12
Writing application                      : mkvmerge v44.0.0 ('Domino&#39 64-bit
Writing library                          : libebml v1.3.10 + libmatroska v1.5.2

Video
ID                                       : 1
Format                                   : AVC
Format/Info                              : Advanced Video Codec
Format profile                           : [email protected]
Format settings                          : 1 Ref Frames
Format settings, CABAC                   : No
Format settings, Reference frames        : 1 frame
Codec ID                                 : V_MPEG4/ISO/AVC
Duration                                 : 1 h 36 min
Bit rate                                 : 1 575 kb/s
Width                                    : 720 pixels
Height                                   : 300 pixels
Display aspect ratio                     : 2.40:1
Frame rate mode                          : Constant
Frame rate                               : 23.976 (24000/1001) FPS
Color space                              : YUV
Chroma subsampling                       : 4:2:0
Bit depth                                : 8 bits
Scan type                                : Progressive
Bits/(Pixel*Frame)                       : 0.304
Stream size                              : 1.08 GiB (79%)
Title                                    : Primal.2019.iTALiAN.AC3.BDRip.x264-ODS.
Writing library                          : x264 core 157 r2935 545de2f
Encoding settings                        : cabac=0 / ref=1 / deblock=0:0:0 / analyse=0:0 / me=dia / subme=0 / psy=1 / psy_rd=1.00:0.00 / mixed_ref=0 / me_range=16 / chroma_me=1 / trellis=1 / 8x8dct=0 / cqm=0 / deadzone=21,11 / fast_pskip=1 / chroma_qp_offset=0 / threads=9 / lookahead_threads=1 / sliced_threads=0 / nr=0 / decimate=1 / interlaced=0 / bluray_compat=0 / constrained_intra=0 / bframes=0 / weightp=0 / keyint=240 / keyint_min=24 / scenecut=0 / intra_refresh=0 / rc=abr / mbtree=0 / bitrate=1575 / ratetol=1.0 / qcomp=0.60 / qpmin=0 / qpmax=69 / qpstep=4 / ip_ratio=1.40 / aq=0
Default                                  : Yes
Forced                                   : No
Color range                              : Limited
Color primaries                          : BT.709
Transfer characteristics                 : BT.709
Matrix coefficients                      : BT.709

Audio
ID                                       : 2
Format                                   : AC-3
Format/Info                              : Audio Coding 3
Commercial name                          : Dolby Digital
Codec ID                                 : A_AC3
Duration                                 : 1 h 32 min
Bit rate mode                            : Constant
Bit rate                                 : 448 kb/s
Channel(s)                               : 6 channels
Channel layout                           : L R C LFE Ls Rs
Sampling rate                            : 44.1 kHz
Frame rate                               : 28.711 FPS (1536 SPF)
Bit depth                                : 16 bits
Compression mode                         : Lossy
Delay relative to video                  : 35 s 959 ms
Stream size                              : 296 MiB (21%)
Title                                    : ITA WEBDL
Language                                 : Italian
Service kind                             : Complete Main
Default                                  : Yes
Forced                                   : No


[/spoiler]
Info: Per scaricare devi usare un client come uTorrent o Transmission
AnnounceURL
udp://tracker.torrent.eu.org:451/announce
Hash 67d3e521ce901bc5e6079ea835c177699614640a
Peers seeds: 120 , leech: 23
Size 1.38 GB
Completato 696x
Aggiunto 03.09.20 - 01:09:27
Uploader   zagor1961
Votazione (Voti: 0)


Condividi questo bittorrent:


html/blog:


bbcode/forum:




Aggiungi Commento