* Dettagli Torrent   globale  | Commenti (0) 


- True.Detective.S03E01-08.BDRip.ITA.ENG.x264-BlackBit -


Download via torrent:
Categoria bittorrent SerieTv
Descrizione


[size=36pt]True Detective - Stagione 3[/size]




Titolo originale True Detective
Paese Stati Uniti d'America
Anno 2014 – in produzione
Formato serie TV
Genere antologico, drammatico, poliziesco, thriller, noir
Stagioni 3
Episodi 24
Durata 55-88 min (episodio)
Lingua originale inglese
Rapporto 16:9



True Detective è una serie televisiva statunitense creata ed interamente scritta da Nic Pizzolatto. Trasmessa dal 2014 da HBO e divenuta subito serie dell'anno, ha stravolto i canoni tradizionali del poliziesco e rivestendoli di un'estetica torbida e di una sensibilità esistenzialista. L'atmosfera noir forgiata dai modelli hollywoodiani è tradotta con un linguaggio inedito e affascinante. Se in quei classici d'epoca la caccia a un criminale realistico era fondata su un girato dalle tinte astratte, dove il gioco dei chiaroscuri risentiva fortemente del modello espressionista, in True Detective la situazione è ribaltata: l'inseguimento di un serial killer si tramuta nella battaglia impari contro un'entità occulta, mentre la trattazione dell'immagine tende ai toni di uno scabro realismo.


[spoiler][/spoiler]


[spoiler]
General
Unique ID : 250286057384048701764127765109683037387 (0xBC4B575CACC3A3F9D514CC8953E8A4CB)
Complete name : True.Detective.S03E01.La.Grande.Guerra.e.la.memoria.moderna.BDRip.ITA.ENG.x264-BlackBit.mkv
Format : Matroska
Format version : Version 4
File size : 616 MiB
Duration : 58 min 58 s
Overall bit rate : 1 460 kb/s
Encoded date : UTC 2020-07-12 09:16:15
Writing application : mkvmerge v48.0.0 ('Fortress Around Your Heart&#39 64-bit
Writing library : libebml v1.4.0 + libmatroska v1.6.0 / Lavf58.44.100

Video
ID : 1
Format : AVC
Format/Info : Advanced Video Codec
Format profile : [email protected]
Format settings : CABAC / 6 Ref Frames
Format settings, CABAC : Yes
Format settings, Reference frames : 6 frames
Codec ID : V_MPEG4/ISO/AVC
Duration : 58 min 58 s
Bit rate : 1 197 kb/s
Width : 768 pixels
Height : 432 pixels
Display aspect ratio : 16:9
Frame rate mode : Constant
Frame rate : 23.976 (24000/1001) FPS
Color space : YUV
Chroma subsampling : 4:2:0
Bit depth : 8 bits
Scan type : Progressive
Bits/(Pixel*Frame) : 0.151
Stream size : 505 MiB (82%)
Writing library : x264 core 160
Encoding settings : cabac=1 / ref=6 / deblock=1:-2:-2 / analyse=0x3:0x133 / me=umh / subme=10 / psy=1 / psy_rd=1.00:0.00 / mixed_ref=1 / me_range=24 / chroma_me=1 / trellis=2 / 8x8dct=1 / cqm=0 / deadzone=6,6 / fast_pskip=1 / chroma_qp_offset=-2 / threads=12 / lookahead_threads=1 / sliced_threads=0 / nr=0 / decimate=0 / interlaced=0 / bluray_compat=0 / constrained_intra=0 / bframes=4 / b_pyramid=2 / b_adapt=2 / b_bias=0 / direct=3 / weightb=1 / open_gop=0 / weightp=2 / keyint=infinite / keyint_min=23 / scenecut=40 / intra_refresh=0 / rc_lookahead=60 / rc=crf / mbtree=1 / crf=17.2 / qcomp=0.80 / qpmin=0 / qpmax=69 / qpstep=4 / ip_ratio=1.10 / aq=3:1.00
Default : Yes
Forced : No
Color range : Limited
Color primaries : BT.709
Transfer characteristics : BT.709
Matrix coefficients : BT.709

Audio #1
ID : 2
Format : AAC LC
Format/Info : Advanced Audio Codec Low Complexity
Codec ID : A_AAC-2
Duration : 58 min 58 s
Bit rate : 130 kb/s
Channel(s) : 2 channels
Channel layout : L R
Sampling rate : 48.0 kHz
Frame rate : 46.875 FPS (1024 SPF)
Compression mode : Lossy
Stream size : 54.7 MiB (9%)
Language : Italian
Default : Yes
Forced : No

Audio #2
ID : 3
Format : AAC LC
Format/Info : Advanced Audio Codec Low Complexity
Codec ID : A_AAC-2
Duration : 58 min 58 s
Bit rate : 132 kb/s
Channel(s) : 2 channels
Channel layout : L R
Sampling rate : 48.0 kHz
Frame rate : 46.875 FPS (1024 SPF)
Compression mode : Lossy
Stream size : 54.9 MiB (9%)
Language : English
Default : No
Forced : No

Text #1
ID : 4
Format : UTF-8
Codec ID : S_TEXT/UTF8
Codec ID/Info : UTF-8 Plain Text
Duration : 51 min 50 s
Bit rate : 0 b/s
Count of elements : 6
Stream size : 197 Bytes (0%)
Title : Forced
Language : Italian
Default : Yes
Forced : No

Text #2
ID : 5
Format : UTF-8
Codec ID : S_TEXT/UTF8
Codec ID/Info : UTF-8 Plain Text
Duration : 57 min 33 s
Bit rate : 50 b/s
Count of elements : 705
Stream size : 21.3 KiB (0%)
Title : SDH
Language : Italian
Default : No
Forced : No

Text #3
ID : 6
Format : UTF-8
Codec ID : S_TEXT/UTF8
Codec ID/Info : UTF-8 Plain Text
Duration : 57 min 31 s
Bit rate : 49 b/s
Count of elements : 675
Stream size : 20.9 KiB (0%)
Title : SDH
Language : English
Default : No
Forced : No

Menu
00:00:00.000 : en:Chapter 01
00:01:36.847 : en:Chapter 02
00:11:42.493 : en:Chapter 03
00:22:48.117 : en:Chapter 04
00:32:51.052 : en:Chapter 05
00:42:47.607 : en:Chapter 06
00:50:17.681 : en:Chapter 07
00:57:52.094 : en:Chapter 08[/spoiler]

Info: Per scaricare devi usare un client come uTorrent o Transmission
AnnounceURL
udp://tracker.coppersurfer.tk:6969/announce
Hash 597db0b403da3bd0c95562d58bffbfd304b310e0
Peers seeds: 11 , leech: 5
Size 5.01 GB
Completato 192x
Aggiunto 20.07.20 - 14:07:33
Uploader Anonymous
Votazione (Voti: 0)


Condividi questo bittorrent:


html/blog:


bbcode/forum:




Aggiungi Commento