* Dettagli Torrent   globale  | Commenti (0) 


- The.Blacklist.S07E18-19.WEBMux.ITA.ENG.DD5.1.x264-BlackBit -


Download via torrent:
Categoria bittorrent SerieTv
Descrizione


[size=36pt]The Blacklist - Stagione 7[/size]




Titolo originale The Blacklist
Paese Stati Uniti d'America
Anno 2013 – in produzione
Formato serie TV
Genere thriller, poliziesco, azione
Stagioni 7
Episodi 143
Durata 45 min (episodio)
Lingua originale inglese
Rapporto 16:9



Raymond Reddington, uno dei più pericolosi ricercati dall'FBI, si costituisce a sorpresa all'agenzia offrendosi di fornire informazioni su ogni criminale con cui abbia avuto a che fare: come clausola all'accordo, chiede di avere l'unico suo referente in Elizabeth Keen, una giovane analista al suo primo giorno di servizio nel Bureau. Questa richiesta, all'apparenza incomprensibile, costringe l'agenzia a rendere "Lizzie" parte integrante di una segreta unità operativa, che da quel momento inizia a occuparsi essenzialmente dei casi forniti da "Red".


[spoiler][/spoiler]


[spoiler]
General
Unique ID : 258146345439540797958460122607512251228 (0xC2352D7BE30CD6E625056C9B123CEB5C)
Complete name : C:UsersAdministratorVideosThe Blacklist S07Ep 01The.Blacklist.S07E01.Louis.T.Steinhil.1.WEBMux.ITA.ENG.DD5.1.x264-BlackBit.mkv
Format : Matroska
Format version : Version 4
File size : 532 MiB
Duration : 42 min 58 s
Overall bit rate : 1 732 kb/s
Encoded date : UTC 2020-03-20 21:10:31
Writing application : mkvmerge v44.0.0 ('Domino&#39 64-bit
Writing library : libebml v1.3.10 + libmatroska v1.5.2

Video
ID : 1
Format : AVC
Format/Info : Advanced Video Codec
Format profile : [email protected]
Format settings : CABAC / 5 Ref Frames
Format settings, CABAC : Yes
Format settings, Reference : 5 frames
Codec ID : V_MPEG4/ISO/AVC
Duration : 42 min 58 s
Bit rate : 1 100 kb/s
Width : 720 pixels
Height : 400 pixels
Display aspect ratio : 16:9
Frame rate mode : Constant
Frame rate : 23.976 (24000/1001) FPS
Color space : YUV
Chroma subsampling : 4:2:0
Bit depth : 8 bits
Scan type : Progressive
Bits/(Pixel*Frame) : 0.159
Stream size : 335 MiB (63%)
Writing library : x264 core 152 r2851M ba24899
Encoding settings : cabac=1 / ref=5 / deblock=1:-1:-1 / analyse=0x3:0x113 / me=umh / subme=9 / psy=1 / psy_rd=1.00:0.15 / mixed_ref=1 / me_range=16 / chroma_me=1 / trellis=2 / 8x8dct=1 / cqm=0 / deadzone=21,11 / fast_pskip=1 / chroma_qp_offset=-3 / threads=12 / lookahead_threads=1 / sliced_threads=0 / nr=0 / decimate=1 / interlaced=0 / bluray_compat=0 / constrained_intra=0 / bframes=3 / b_pyramid=2 / b_adapt=2 / b_bias=0 / direct=3 / weightb=1 / open_gop=0 / weightp=2 / keyint=250 / keyint_min=23 / scenecut=40 / intra_refresh=0 / rc_lookahead=50 / rc=abr / mbtree=1 / bitrate=1100 / ratetol=1.0 / qcomp=0.60 / qpmin=0 / qpmax=69 / qpstep=4 / ip_ratio=1.40 / aq=1:1.00
Default : Yes
Forced : Yes

Audio #1
ID : 2
Format : AC-3
Format/Info : Audio Coding 3
Commercial name : Dolby Digital
Codec ID : A_AC3
Duration : 42 min 57 s
Bit rate mode : Constant
Bit rate : 384 kb/s
Channel(s) : 6 channels
Channel layout : L R C LFE Ls Rs
Sampling rate : 48.0 kHz
Frame rate : 31.250 FPS (1536 SPF)
Compression mode : Lossy
Delay relative to video : -43 ms
Stream size : 118 MiB (22%)
Language : Italian
Service kind : Complete Main
Default : Yes
Forced : Yes

Audio #2
ID : 3
Format : AAC LC
Format/Info : Advanced Audio Codec Low Complexity
Codec ID : A_AAC-2
Duration : 42 min 58 s
Bit rate : 256 kb/s
Channel(s) : 2 channels
Channel layout : L R
Sampling rate : 48.0 kHz
Frame rate : 46.875 FPS (1024 SPF)
Compression mode : Lossy
Delay relative to video : -43 ms
Stream size : 78.7 MiB (15%)
Language : English
Default : No
Forced : No

Text #1
ID : 4
Format : UTF-8
Codec ID : S_TEXT/UTF8
Codec ID/Info : UTF-8 Plain Text
Duration : 32 min 15 s
Bit rate : 1 b/s
Count of elements : 19
Stream size : 441 Bytes (0%)
Language : Italian
Default : Yes
Forced : Yes

Text #2
ID : 5
Format : UTF-8
Codec ID : S_TEXT/UTF8
Codec ID/Info : UTF-8 Plain Text
Duration : 41 min 52 s
Bit rate : 85 b/s
Count of elements : 742
Stream size : 26.3 KiB (0%)
Language : Italian
Default : No
Forced : No

Text #3
ID : 6
Format : UTF-8
Codec ID : S_TEXT/UTF8
Codec ID/Info : UTF-8 Plain Text
Duration : 42 min 8 s
Bit rate : 89 b/s
Count of elements : 871
Stream size : 27.6 KiB (0%)
Title : SDH
Language : English
Default : No
Forced : No[/spoiler]
Info: Per scaricare devi usare un client come uTorrent o Transmission
AnnounceURL
udp://tracker.coppersurfer.tk:6969/announce
Hash c1182538a80a2e944b87d804b42e20e38d5e0f68
Peers seeds: 0 , leech: 30
Size 0.99 GB
Completato 0x
Aggiunto 01.07.20 - 02:07:17
Uploader Anonymous
Votazione (Voti: 0)


Condividi questo bittorrent:


html/blog:


bbcode/forum:




Aggiungi Commento