* Dettagli Torrent   globale  | Commenti (0) 


- Snowpiercer.S01E07.The.Universe.Is.Indifferent.WEBRip.ITA.ENG.DD5.1.x264-BlackBit.mkv -


Download via torrent:
Categoria bittorrent SerieTv
Descrizione


[size=36pt]Snowpiercer - Stagione 1[/size]




Titolo originale Snowpiercer
Paese Stati Uniti d'America
Anno 2020 – in produzione
Formato serie TV
Genere fantascienza, drammatico, thriller, post apocalittico
Stagioni 1
Episodi 10
Lingua originale inglese
Rapporto 16:9



Anno 2027. Il mondo è divenuto un immenso deserto di ghiaccio in seguito ad un tentativo fallito di porre rimedio al surriscaldamento globale. Gli unici sopravvissuti si trovano a bordo dello Snowpiercer, un rivoluzionario treno a moto perpetuo che percorre un tragitto completo ogni anno. Mentre la vita scorre agiata e nel lusso nei vagoni di testa, in quelli di coda malnutrizione e povertà regnano sovrani, ma la rivolta è dietro l'angolo.


[spoiler][/spoiler]


[spoiler]
General
Unique ID : 313588146034178556091571745467768982194 (0xEBEAE14BF4201D3D1A9365868A5B4AB2)
Complete name : C:UsersAdministratorVideosSnowpiercer S01Snowpiercer.S01E01.First.the.Weather.Changed.WEBRip.ITA.ENG.DD5.1.x264-BlackBit.mkv
Format : Matroska
Format version : Version 4
File size : 870 MiB
Duration : 51 min 20 s
Overall bit rate : 2 370 kb/s
Encoded date : UTC 2020-05-25 08:20:02
Writing application : mkvmerge v46.0.0 ('No Deeper Escape&#39 64-bit
Writing library : libebml v1.3.10 + libmatroska v1.5.2

Video
ID : 1
Format : AVC
Format/Info : Advanced Video Codec
Format profile : [email protected]
Format settings : CABAC / 15 Ref Frames
Format settings, CABAC : Yes
Format settings, Reference : 15 frames
Codec ID : V_MPEG4/ISO/AVC
Duration : 51 min 20 s
Bit rate : 1 510 kb/s
Width : 720 pixels
Height : 404 pixels
Display aspect ratio : 16:9
Frame rate mode : Constant
Frame rate : 23.976 (24000/1001) FPS
Color space : YUV
Chroma subsampling : 4:2:0
Bit depth : 8 bits
Scan type : Progressive
Bits/(Pixel*Frame) : 0.216
Stream size : 554 MiB (64%)
Writing library : x264 core 157 r2969 d4099dd
Encoding settings : cabac=1 / ref=15 / deblock=1:0:0 / analyse=0x3:0x133 / me=umh / subme=9 / psy=1 / psy_rd=1.00:0.00 / mixed_ref=1 / me_range=24 / chroma_me=1 / trellis=2 / 8x8dct=1 / cqm=0 / deadzone=21,11 / fast_pskip=0 / chroma_qp_offset=-2 / threads=12 / lookahead_threads=2 / sliced_threads=0 / nr=0 / decimate=1 / interlaced=0 / bluray_compat=0 / constrained_intra=0 / bframes=8 / b_pyramid=2 / b_adapt=2 / b_bias=0 / direct=3 / weightb=1 / open_gop=0 / weightp=2 / keyint=240 / keyint_min=23 / scenecut=40 / intra_refresh=0 / rc_lookahead=60 / rc=crf / mbtree=0 / crf=17.0 / qcomp=0.60 / qpmin=0 / qpmax=69 / qpstep=4 / vbv_maxrate=17500 / vbv_bufsize=17500 / crf_max=0.0 / nal_hrd=none / filler=0 / ip_ratio=1.40 / pb_ratio=1.30 / aq=1:1.00
Default : Yes
Forced : Yes

Audio #1
ID : 2
Format : AC-3
Format/Info : Audio Coding 3
Commercial name : Dolby Digital
Codec ID : A_AC3
Duration : 51 min 20 s
Bit rate mode : Constant
Bit rate : 640 kb/s
Channel(s) : 6 channels
Channel layout : L R C LFE Ls Rs
Sampling rate : 48.0 kHz
Frame rate : 31.250 FPS (1536 SPF)
Compression mode : Lossy
Stream size : 235 MiB (27%)
Language : Italian
Service kind : Complete Main
Default : Yes
Forced : Yes

Audio #2
ID : 3
Format : AAC LC
Format/Info : Advanced Audio Codec Low Complexity
Codec ID : A_AAC-2
Duration : 51 min 20 s
Bit rate : 218 kb/s
Channel(s) : 2 channels
Channel layout : L R
Sampling rate : 48.0 kHz
Frame rate : 46.875 FPS (1024 SPF)
Compression mode : Lossy
Delay relative to video : 9 ms
Stream size : 79.9 MiB (9%)
Language : English
Default : No
Forced : No

Text #1
ID : 4
Format : UTF-8
Codec ID : S_TEXT/UTF8
Codec ID/Info : UTF-8 Plain Text
Duration : 47 min 39 s
Bit rate : 0 b/s
Count of elements : 8
Stream size : 95.0 Bytes (0%)
Language : Italian
Default : Yes
Forced : Yes

Text #2
ID : 5
Format : UTF-8
Codec ID : S_TEXT/UTF8
Codec ID/Info : UTF-8 Plain Text
Duration : 51 min 5 s
Bit rate : 54 b/s
Count of elements : 618
Stream size : 20.4 KiB (0%)
Language : Italian
Default : No
Forced : No

Text #3
ID : 6
Format : UTF-8
Codec ID : S_TEXT/UTF8
Codec ID/Info : UTF-8 Plain Text
Duration : 50 min 38 s
Bit rate : 58 b/s
Count of elements : 783
Stream size : 21.8 KiB (0%)
Language : English
Default : No
Forced : No

Text #4
ID : 7
Format : UTF-8
Codec ID : S_TEXT/UTF8
Codec ID/Info : UTF-8 Plain Text
Duration : 51 min 10 s
Bit rate : 65 b/s
Count of elements : 1019
Stream size : 24.7 KiB (0%)
Title : SDH
Language : English
Default : No
Forced : No[/spoiler]
Info: Per scaricare devi usare un client come uTorrent o Transmission
AnnounceURL
udp://tracker.coppersurfer.tk:6969/announce
Hash 419d65900e37803398f32ab26cff0e213ac155cb
Peers seeds: 18 , leech: 2
Size 684.40 MB
Completato 223x
Aggiunto 01.07.20 - 02:07:33
Uploader Anonymous
Votazione (Voti: 0)


Condividi questo bittorrent:


html/blog:


bbcode/forum:




Aggiungi Commento