* Dettagli Torrent   globale  | Commenti (0) 


- Legacies.S02E14.Theres.a.Place.Where.the.Lost.Things.Go.WEBMux.ITA.ENG.x264-BlackBit.mkv -


Download via torrent:
Categoria bittorrent SerieTv
Descrizione


[size=36pt]Legacies - Stagione 2[/size]




Titolo originale Legacies
Paese Stati Uniti d'America
Anno 2018 – in produzione
Formato serie TV
Genere horror, fantasy, sentimentale, dramma adolescenziale
Stagioni 2
Episodi 24
Durata 42 min (episodio)
Lingua originale inglese
Rapporto 16:9
[imdb]tt8103070[/imdb]



Fantasy drama sulle vicende di Hope Mikaelson, la figlia di due ibridi vampiro/licantropi che appartiene a un'antica famiglia di creature soprannaturali.


[spoiler][/spoiler]


[spoiler]
General
Unique ID : 182325386356463439892410243138752733606 (0x892A97953702DCE3E8086D0160B5E1A6)
Complete name : C:UsersAdministratorVideosLegacies S02Legacies.S02E01.Ill.Never.Give.Up.Hope.WEBMux.ITA.ENG.x264-BlackBit.mkv
Format : Matroska
Format version : Version 4
File size : 470 MiB
Duration : 42 min 26 s
Overall bit rate : 1 547 kb/s
Encoded date : UTC 2020-01-01 22:20:41
Writing application : mkvmerge v41.0.0 ('Smarra&#39 64-bit
Writing library : libebml v1.3.9 + libmatroska v1.5.2

Video
ID : 1
Format : AVC
Format/Info : Advanced Video Codec
Format profile : [email protected]
Format settings : CABAC / 5 Ref Frames
Format settings, CABAC : Yes
Format settings, Reference : 5 frames
Codec ID : V_MPEG4/ISO/AVC
Duration : 42 min 26 s
Bit rate : 1 100 kb/s
Width : 720 pixels
Height : 400 pixels
Display aspect ratio : 16:9
Frame rate mode : Constant
Frame rate : 23.976 (24000/1001) FPS
Color space : YUV
Chroma subsampling : 4:2:0
Bit depth : 8 bits
Scan type : Progressive
Bits/(Pixel*Frame) : 0.159
Stream size : 333 MiB (71%)
Writing library : x264 core 152 r2851M ba24899
Encoding settings : cabac=1 / ref=5 / deblock=1:-1:-1 / analyse=0x3:0x113 / me=umh / subme=9 / psy=1 / psy_rd=1.00:0.15 / mixed_ref=1 / me_range=16 / chroma_me=1 / trellis=2 / 8x8dct=1 / cqm=0 / deadzone=21,11 / fast_pskip=1 / chroma_qp_offset=-3 / threads=12 / lookahead_threads=1 / sliced_threads=0 / nr=0 / decimate=1 / interlaced=0 / bluray_compat=0 / constrained_intra=0 / bframes=3 / b_pyramid=2 / b_adapt=2 / b_bias=0 / direct=3 / weightb=1 / open_gop=0 / weightp=2 / keyint=250 / keyint_min=23 / scenecut=40 / intra_refresh=0 / rc_lookahead=50 / rc=abr / mbtree=1 / bitrate=1100 / ratetol=1.0 / qcomp=0.60 / qpmin=0 / qpmax=69 / qpstep=4 / ip_ratio=1.40 / aq=1:1.00
Default : Yes
Forced : Yes

Audio #1
ID : 2
Format : AC-3
Format/Info : Audio Coding 3
Commercial name : Dolby Digital
Codec ID : A_AC3
Duration : 42 min 26 s
Bit rate mode : Constant
Bit rate : 192 kb/s
Channel(s) : 2 channels
Channel layout : L R
Sampling rate : 48.0 kHz
Frame rate : 31.250 FPS (1536 SPF)
Compression mode : Lossy
Delay relative to video : -43 ms
Stream size : 58.3 MiB (12%)
Language : Italian
Service kind : Complete Main
Default : Yes
Forced : Yes

Audio #2
ID : 3
Format : AAC LC
Format/Info : Advanced Audio Codec Low Complexity
Codec ID : A_AAC-2
Duration : 42 min 26 s
Bit rate : 256 kb/s
Channel(s) : 2 channels
Channel layout : L R
Sampling rate : 48.0 kHz
Frame rate : 46.875 FPS (1024 SPF)
Compression mode : Lossy
Delay relative to video : -43 ms
Stream size : 77.7 MiB (17%)
Language : English
Default : No
Forced : No

Text #1
ID : 4
Format : UTF-8
Codec ID : S_TEXT/UTF8
Codec ID/Info : UTF-8 Plain Text
Duration : 41 min 29 s
Bit rate : 0 b/s
Count of elements : 6
Stream size : 94.0 Bytes (0%)
Language : Italian
Default : Yes
Forced : Yes

Text #2
ID : 5
Format : UTF-8
Codec ID : S_TEXT/UTF8
Codec ID/Info : UTF-8 Plain Text
Duration : 41 min 55 s
Bit rate : 76 b/s
Count of elements : 708
Stream size : 23.6 KiB (0%)
Language : Italian
Default : No
Forced : No

Text #3
ID : 6
Format : UTF-8
Codec ID : S_TEXT/UTF8
Codec ID/Info : UTF-8 Plain Text
Duration : 41 min 42 s
Bit rate : 78 b/s
Count of elements : 778
Stream size : 24.0 KiB (0%)
Language : English
Default : No
Forced : No

Text #4
ID : 7
Format : UTF-8
Codec ID : S_TEXT/UTF8
Codec ID/Info : UTF-8 Plain Text
Duration : 41 min 42 s
Bit rate : 81 b/s
Count of elements : 832
Stream size : 24.8 KiB (0%)
Title : SDH
Language : English
Default : No
Forced : No[/spoiler]
Info: Per scaricare devi usare un client come uTorrent o Transmission
AnnounceURL
udp://tracker.coppersurfer.tk:6969/announce
Hash aa05ff5a40a91fd74b59e35b70525a76ef1d936d
Peers seeds: 8 , leech: 1
Size 471.32 MB
Completato 59x
Aggiunto 01.07.20 - 02:07:23
Uploader Anonymous
Votazione (Voti: 0)


Condividi questo bittorrent:


html/blog:


bbcode/forum:




Aggiungi Commento