* Dettagli Torrent   globale  | Commenti (0) 


- Fear.The.Walking.Dead.S05E07-08.BDMux.ITA.ENG.x264-BlackBit -


Download via torrent:
Categoria bittorrent SerieTv
Descrizione


[size=36pt]Fear the Walking Dead - Stagione 5[/size]




Titolo originale    Fear the Walking Dead
Paese    Stati Uniti d'America
Anno    2015 – in produzione
Formato    serie TV
Genere    drammatico, orrore, azione
Stagioni    5
Episodi    69
Durata    45 min (episodio)
Lingua originale    inglese
Rapporto    16:9



Spin-off dell'acclamata serie The Walking Dead, racconta l'antefatto della serie madre, illustrando in tutto il suo gore come il mondo è precipitato nel caos a causa di un virus che si è diffuso così rapidamente da cambiare la faccia del pianeta in pochissimo tempo.


[spoiler][/spoiler]


[spoiler]General
Unique ID                   : 336709849756405705637241831159045876873 (0xFD4FF54E02BD967BCA5928771A00EC89)
Complete name               : C:UsersAdministratorVideosFear The Walking Dead S05Ep 01Fear.The.Walking.Dead.S05E01.Here.to.Help.REAL.REPACK.BDMux.ITA.ENG.x264-BlackBit.mkv
Format                      : Matroska
Format version              : Version 4
File size                   : 472 MiB
Duration                    : 45 min 44 s
Overall bit rate            : 1 444 kb/s
Encoded date                : UTC 2020-06-07 00:02:26
Writing application         : mkvmerge v46.0.0 ('No Deeper Escape&#39 64-bit
Writing library             : libebml v1.3.10 + libmatroska v1.5.2

Video
ID                          : 1
Format                      : AVC
Format/Info                 : Advanced Video Codec
Format profile              : [email protected]
Format settings             : CABAC / 5 Ref Frames
Format settings, CABAC      : Yes
Format settings, Reference  : 5 frames
Codec ID                    : V_MPEG4/ISO/AVC
Duration                    : 45 min 44 s
Bit rate                    : 932 kb/s
Width                       : 720 pixels
Height                      : 406 pixels
Display aspect ratio        : 16:9
Frame rate mode             : Constant
Frame rate                  : 23.976 (24000/1001) FPS
Color space                 : YUV
Chroma subsampling          : 4:2:0
Bit depth                   : 8 bits
Scan type                   : Progressive
Bits/(Pixel*Frame)          : 0.133
Stream size                 : 305 MiB (65%)
Writing library             : x264 core 158 r2988 7817004
Encoding settings           : cabac=1 / ref=5 / deblock=1:-3:-3 / analyse=0x3:0x113 / me=hex / subme=8 / psy=1 / psy_rd=1.00:0.15 / mixed_ref=1 / me_range=16 / chroma_me=1 / trellis=2 / 8x8dct=1 / cqm=0 / deadzone=21,11 / fast_pskip=1 / chroma_qp_offset=-3 / threads=13 / lookahead_threads=2 / sliced_threads=0 / nr=0 / decimate=1 / interlaced=0 / bluray_compat=0 / constrained_intra=0 / bframes=3 / b_pyramid=2 / b_adapt=1 / b_bias=0 / direct=3 / weightb=1 / open_gop=0 / weightp=2 / keyint=250 / keyint_min=23 / scenecut=40 / intra_refresh=0 / rc_lookahead=50 / rc=crf / mbtree=1 / crf=19.0 / qcomp=0.60 / qpmin=0 / qpmax=69 / qpstep=4 / vbv_maxrate=17500 / vbv_bufsize=17500 / crf_max=0.0 / nal_hrd=none / filler=0 / ip_ratio=1.40 / aq=1:0.60
Default                     : Yes
Forced                      : Yes
Color range                 : Limited
Matrix coefficients         : BT.709

Audio #1
ID                          : 2
Format                      : AC-3
Format/Info                 : Audio Coding 3
Commercial name             : Dolby Digital
Codec ID                    : A_AC3
Duration                    : 45 min 44 s
Bit rate mode               : Constant
Bit rate                    : 384 kb/s
Channel(s)                  : 2 channels
Channel layout              : L R
Sampling rate               : 48.0 kHz
Frame rate                  : 31.250 FPS (1536 SPF)
Compression mode            : Lossy
Stream size                 : 126 MiB (27%)
Language                    : Italian
Service kind                : Complete Main
Default                     : Yes
Forced                      : Yes

Audio #2
ID                          : 3
Format                      : AAC LC
Format/Info                 : Advanced Audio Codec Low Complexity
Codec ID                    : A_AAC-2
Duration                    : 45 min 44 s
Bit rate                    : 125 kb/s
Channel(s)                  : 2 channels
Channel layout              : L R
Sampling rate               : 48.0 kHz
Frame rate                  : 46.875 FPS (1024 SPF)
Compression mode            : Lossy
Delay relative to video     : 20 ms
Stream size                 : 40.8 MiB (9%)
Language                    : English
Default                     : No
Forced                      : No

Text #1
ID                          : 4
Format                      : UTF-8
Codec ID                    : S_TEXT/UTF8
Codec ID/Info               : UTF-8 Plain Text
Duration                    : 34 min 29 s
Bit rate                    : 0 b/s
Count of elements           : 4
Stream size                 : 176 Bytes (0%)
Language                    : Italian
Default                     : Yes
Forced                      : Yes

Text #2
ID                          : 5
Format                      : UTF-8
Codec ID                    : S_TEXT/UTF8
Codec ID/Info               : UTF-8 Plain Text
Duration                    : 45 min 2 s
Bit rate                    : 46 b/s
Count of elements           : 554
Stream size                 : 15.2 KiB (0%)
Language                    : Italian
Default                     : No
Forced                      : No[/spoiler]
Info: Per scaricare devi usare un client come uTorrent o Transmission
AnnounceURL
udp://tracker.coppersurfer.tk:6969/announce
Hash 20f10a2e6d78bc4efd29aed3a47197fcf03a0e88
Peers seeds: 20 , leech: 4
Size 868.04 MB
Completato 198x
Aggiunto 01.07.20 - 02:07:06
Uploader Anonymous
Votazione (Voti: 0)


Condividi questo bittorrent:


html/blog:


bbcode/forum:




Aggiungi Commento