* Dettagli Torrent   globale  | Commenti (0) 


- Doctor.Who.2005.S12E09-10.ITA.ENG.BDMux.x264-BlackBit -


Download via torrent:
Categoria bittorrent SerieTv
Descrizione


[size=36pt]Doctor Who - Stagione 12[/size]




Titolo originale Doctor Who
Paese Regno Unito
Anno: 2005 – in produzione (nuova serie)
Formato serie TV
Genere fantascienza, avventura, fantastico, drammatico



Riprendono le avventure del Signore del Tempo più amato e longevo del piccolo schermo: il Dottore è di nuovo tra noi, rigenerato e pronto a viaggiare nel tempo e nello spazio con i suoi nuovi compagni di avventure, Rose, Mickey, Martha, Donna, e altri ancora con cui vivrà nuove, strabilianti avventure, combattendo nemici vecchi e nuovi, tra cui i temibili Daleks, i Cybermen e perfino l'antica nemesi del Dottore: il Maestro.


[spoiler][/spoiler]


[spoiler]
General
Unique ID : 67860892693753047410622895970753024573 (0x330D8853D4FDED10A309DA795B49923D)
Complete name : C:UsersAdministratorVideosDoctor Who S12Doctor.Who.2005.S12E01.Spyfall.Part.One.ITA.ENG.BDMux.x264-BlackBit.mkv
Format : Matroska
Format version : Version 4
File size : 450 MiB
Duration : 59 min 49 s
Overall bit rate : 1 052 kb/s
Encoded date : UTC 2020-06-15 14:53:15
Writing application : mkvmerge v46.0.0 ('No Deeper Escape&#39 64-bit
Writing library : libebml v1.3.10 + libmatroska v1.5.2

Video
ID : 1
Format : AVC
Format/Info : Advanced Video Codec
Format profile : [email protected]
Format settings : CABAC / 5 Ref Frames
Format settings, CABAC : Yes
Format settings, Reference : 5 frames
Codec ID : V_MPEG4/ISO/AVC
Duration : 59 min 49 s
Bit rate : 731 kb/s
Width : 720 pixels
Height : 360 pixels
Display aspect ratio : 2.000
Frame rate mode : Constant
Frame rate : 25.000 FPS
Color space : YUV
Chroma subsampling : 4:2:0
Bit depth : 8 bits
Scan type : Progressive
Bits/(Pixel*Frame) : 0.113
Stream size : 313 MiB (70%)
Writing library : x264 core 158 r2984 3759fcb
Encoding settings : cabac=1 / ref=5 / deblock=1:-2:-2 / analyse=0x3:0x113 / me=umh / subme=8 / psy=1 / psy_rd=1.00:0.00 / mixed_ref=1 / me_range=16 / chroma_me=1 / trellis=2 / 8x8dct=1 / cqm=0 / deadzone=21,11 / fast_pskip=1 / chroma_qp_offset=-2 / threads=11 / lookahead_threads=1 / sliced_threads=0 / nr=0 / decimate=1 / interlaced=0 / bluray_compat=0 / constrained_intra=0 / bframes=3 / b_pyramid=2 / b_adapt=1 / b_bias=0 / direct=3 / weightb=1 / open_gop=0 / weightp=2 / keyint=250 / keyint_min=25 / scenecut=40 / intra_refresh=0 / rc_lookahead=50 / rc=crf / mbtree=1 / crf=19.0 / qcomp=0.60 / qpmin=0 / qpmax=69 / qpstep=4 / ip_ratio=1.40 / aq=1:0.70
Default : Yes
Forced : Yes
Color range : Limited
Matrix coefficients : BT.709

Audio #1
ID : 2
Format : AC-3
Format/Info : Audio Coding 3
Commercial name : Dolby Digital
Codec ID : A_AC3
Duration : 59 min 49 s
Bit rate mode : Constant
Bit rate : 192 kb/s
Channel(s) : 2 channels
Channel layout : L R
Sampling rate : 48.0 kHz
Frame rate : 31.250 FPS (1536 SPF)
Compression mode : Lossy
Stream size : 82.2 MiB (18%)
Language : Italian
Service kind : Complete Main
Default : Yes
Forced : Yes

Audio #2
ID : 3
Format : AAC LC
Format/Info : Advanced Audio Codec Low Complexity
Codec ID : A_AAC-2
Duration : 59 min 49 s
Bit rate : 126 kb/s
Channel(s) : 2 channels
Channel layout : L R
Sampling rate : 48.0 kHz
Frame rate : 46.875 FPS (1024 SPF)
Compression mode : Lossy
Delay relative to video : 9 ms
Stream size : 53.8 MiB (12%)
Language : English
Default : No
Forced : No

Text #1
ID : 4
Format : UTF-8
Codec ID : S_TEXT/UTF8
Codec ID/Info : UTF-8 Plain Text
Duration : 59 min 0 s
Bit rate : 0 b/s
Count of elements : 5
Stream size : 172 Bytes (0%)
Language : Italian
Default : Yes
Forced : Yes

Text #2
ID : 5
Format : UTF-8
Codec ID : S_TEXT/UTF8
Codec ID/Info : UTF-8 Plain Text
Duration : 59 min 36 s
Bit rate : 70 b/s
Count of elements : 916
Stream size : 30.7 KiB (0%)
Language : Italian
Default : No
Forced : No

Menu
00:00:00.000 : en:Chapter 01
00:06:10.640 : en:Chapter 02
00:10:08.920 : en:Chapter 03
00:15:49.240 : en:Chapter 04
00:20:06.320 : en:Chapter 05
00:25:43.000 : en:Chapter 06
00:29:22.720 : en:Chapter 07
00:33:57.120 : en:Chapter 08
00:39:38.400 : en:Chapter 09
00:44:23.720 : en:Chapter 10
00:49:04.080 : en:Chapter 11
00:59:03.440 : en:Chapter 12[/spoiler]
Info: Per scaricare devi usare un client come uTorrent o Transmission
AnnounceURL
udp://tracker.coppersurfer.tk:6969/announce
Hash 2be804dcfa950727df7d39c63db55998343e20b8
Peers seeds: 10 , leech: 0
Size 828.72 MB
Completato 112x
Aggiunto 29.06.20 - 01:06:59
Uploader Anonymous
Votazione (Voti: 0)


Condividi questo bittorrent:


html/blog:


bbcode/forum:




Aggiungi Commento