* Dettagli Torrent   globale  | Commenti (0) 


- Decisione Estrema-An acceptable loss (2018) ITA-ENG Ac3 5.1 WEBRip 1080p H264 [ArMor] -


Download via torrent:
Categoria bittorrent BDRip
Descrizione




Titolo originale The Pages, sostituito poi da An Acceptable Loss
Paese di produzione Stati Uniti d'America
Anno 2019
Genere thriller, drammatico
Regia Joe Chappelle

Plot: Elizabeth "Libby" Lamm ha terminato il suo incarico di Consigliere per la sicurezza del Presidente degli Stati Uniti e, lasciata la Casa Bianca, si sistema in un elegante appartamento e si dedica all'insegnamento nell'Università in materia di politica estera. Per ridurre al minimo i rischi di stalking connessi alla sua delicata mansione precedente, rinuncia a qualsiasi aggeggio elettronico attraverso il quale possa venir "disturbata", quindi niente telefono (né fisso né cellulare), niente e-mail, ecc. Mantiene però un regolare rapporto di amicizia e confidenza con la vicepresidente degli Stati Uniti, Rachel Burke.

Libby teaches at a university but 4 years ago she was top aide to VP Rachel and was part of a total victory action. Rachel is now US president and worried about Libby keeping quiet. Libby also has a student spying on her.










General
Unique ID                                : 220495699269525312569251763181492942666 (0xA5E1ED4EC5021FF89312ABC3ADACB74A)
Complete name                            : Decisione Estrema-An acceptable loss (201 ITA-ENG Ac3 5.1 WEBRip 1080p H264 [ArMor].mkv
Format                                   : Matroska
Format version                           : Version 4
File size                                : 3.12 GiB
Duration                                 : 1 h 41 min
Overall bit rate                         : 4 378 kb/s
Encoded date                             : UTC 2020-06-28 15:16:26
Writing application                      : mkvmerge v15.0.0 ('Duel with the Devil&#39 64-bit
Writing library                          : libebml v1.3.5 + libmatroska v1.4.5 / Lavf58.29.100

Video
ID                                       : 1
Format                                   : AVC
Format/Info                              : Advanced Video Codec
Format profile                           : [email protected]
Format settings                          : CABAC / 4 Ref Frames
Format settings, CABAC                   : Yes
Format settings, Reference frames        : 4 frames
Codec ID                                 : V_MPEG4/ISO/AVC
Duration                                 : 1 h 41 min
Bit rate                                 : 3 500 kb/s
Width                                    : 1 920 pixels
Height                                   : 804 pixels
Display aspect ratio                     : 2.40:1
Frame rate mode                          : Constant
Frame rate                               : 23.976 FPS
Color space                              : YUV
Chroma subsampling                       : 4:2:0
Bit depth                                : 8 bits
Scan type                                : Progressive
Bits/(Pixel*Frame)                       : 0.095
Stream size                              : 2.48 GiB (79%)
Writing library                          : x264 core 157 r2935 545de2f
Encoding settings                        : cabac=1 / ref=2 / deblock=1:0:0 / analyse=0x1:0x111 / me=hex / subme=6 / psy=1 / psy_rd=1.00:0.00 / mixed_ref=1 / me_range=16 / chroma_me=1 / trellis=1 / 8x8dct=0 / cqm=0 / deadzone=21,11 / fast_pskip=1 / chroma_qp_offset=-2 / threads=18 / lookahead_threads=3 / sliced_threads=0 / nr=0 / decimate=1 / interlaced=0 / bluray_compat=0 / constrained_intra=0 / bframes=3 / b_pyramid=2 / b_adapt=1 / b_bias=0 / direct=1 / weightb=1 / open_gop=0 / weightp=1 / keyint=240 / keyint_min=24 / scenecut=40 / intra_refresh=0 / rc_lookahead=30 / rc=abr / mbtree=1 / bitrate=3500 / ratetol=1.0 / qcomp=0.60 / qpmin=0 / qpmax=69 / qpstep=4 / vbv_maxrate=50000 / vbv_bufsize=62500 / nal_hrd=none / filler=0 / ip_ratio=1.40 / aq=1:1.00
Default                                  : Yes
Forced                                   : No
Color range                              : Limited
Color primaries                          : BT.709
Transfer characteristics                 : BT.709
Matrix coefficients                      : BT.709

Audio #1
ID                                       : 2
Format                                   : AC-3
Format/Info                              : Audio Coding 3
Commercial name                          : Dolby Digital
Codec ID                                 : A_AC3
Duration                                 : 1 h 41 min
Bit rate mode                            : Constant
Bit rate                                 : 448 kb/s
Channel(s)                               : 6 channels
Channel layout                           : L R C LFE Ls Rs
Sampling rate                            : 48.0 kHz
Frame rate                               : 31.250 FPS (1536 SPF)
Compression mode                         : Lossy
Stream size                              : 327 MiB (10%)
Title                                    : WEBDL
Language                                 : Italian
Service kind                             : Complete Main
Default                                  : Yes
Forced                                   : No

Audio #2
ID                                       : 3
Format                                   : AC-3
Format/Info                              : Audio Coding 3
Commercial name                          : Dolby Digital
Codec ID                                 : A_AC3
Duration                                 : 1 h 41 min
Bit rate mode                            : Constant
Bit rate                                 : 448 kb/s
Channel(s)                               : 6 channels
Channel layout                           : L R C LFE Ls Rs
Sampling rate                            : 48.0 kHz
Frame rate                               : 31.250 FPS (1536 SPF)
Compression mode                         : Lossy
Stream size                              : 327 MiB (10%)
Title                                    : Surround
Language                                 : English
Service kind                             : Complete Main
Default                                  : No
Forced                                   : No


Info: Per scaricare devi usare un client come uTorrent o Transmission
AnnounceURL
udp://tracker.coppersurfer.tk:6969/announce
Hash 978f98fdfa31d724a3873cc16550d53fe9be762f
Peers seeds: 83 , leech: 12
Size 3.12 GB
Completato 396x
Aggiunto 28.06.20 - 19:06:55
Uploader   ArMor
Votazione (Voti: 0)


Condividi questo bittorrent:


html/blog:


bbcode/forum:




Aggiungi Commento